<?xml version="1.0" standalone="no"?>
<!DOCTYPE svg PUBLIC "-//W3C//DTD SVG 1.1//EN" "http://www.w3.org/Graphics/SVG/1.1/DTD/svg11.dtd" >
<svg xmlns="http://www.w3.org/2000/svg">
<metadata></metadata>
<defs>
<font id="rochesterregular" horiz-adv-x="809" >
<font-face units-per-em="2048" ascent="1638" descent="-410" />
<missing-glyph horiz-adv-x="471" />
<glyph unicode="&#xd;" horiz-adv-x="471" />
<glyph unicode=" "  horiz-adv-x="471" />
<glyph unicode="&#x09;" horiz-adv-x="471" />
<glyph unicode="&#xa0;" horiz-adv-x="471" />
<glyph unicode="!" horiz-adv-x="430" d="M123 92q0 39 26.5 65.5t65.5 26.5q38 0 65 -27t27 -65t-27 -65t-65 -27t-65 27t-27 65zM190 977q0 262 5 397q1 29 34 46.5t58 17.5q21 0 31 -9t10 -40q0 -79 -40 -524.5t-42 -526.5l-51 2q0 105 -2.5 317t-2.5 320z" />
<glyph unicode="&#x22;" horiz-adv-x="410" d="M82 1403h92v-328h-61zM236 1075v328h92l-31 -328h-61z" />
<glyph unicode="#" horiz-adv-x="942" d="M82 674q0 26 24 26q1 0 61 -1t118 -1q2 60 2 185q-152 0 -185 -2q-10 0 -15 15.5t-5 33.5q0 26 24 26l61 -1q61 -1 122 -1q0 150 -2 183q0 9 15.5 14.5t33.5 5.5q26 0 26 -24q0 -1 -1 -61.5t-1 -119.5q123 0 185 -2q0 154 -2 187q0 9 15.5 14.5t33.5 5.5q26 0 26 -24 q0 -1 -1 -62t-1 -121q150 0 183 2q9 0 14.5 -15.5t5.5 -33.5q0 -26 -24 -26q-1 0 -61.5 1t-119.5 1q0 -125 -2 -185q154 0 187 2q9 0 14.5 -15.5t5.5 -33.5q0 -26 -24 -26q-1 0 -62 1t-121 1q0 -150 2 -183q0 -10 -15.5 -15t-33.5 -5q-26 0 -26 24q0 1 1 61t1 118 q-62 2 -185 2q0 -152 2 -185q0 -10 -15.5 -15t-33.5 -5q-26 0 -26 24q0 1 1 61.5t1 121.5q-150 0 -183 -2q-10 0 -15 15.5t-5 33.5zM356 696q125 0 185 -2q2 62 2 185q-60 2 -185 2q0 -123 -2 -185z" />
<glyph unicode="$" horiz-adv-x="1034" d="M113 479q0 42 20 81t49 65t58 46t49 29l20 9l23 -47q-3 -3 -9 -7.5t-21 -21.5t-26 -36t-20.5 -49.5t-9.5 -62.5q0 -85 59 -146t166 -75v518q-58 30 -94.5 51t-84 56t-74 67.5t-45.5 78.5t-19 98q0 150 89.5 239.5t227.5 114.5v135h61v-129q9 2 27 2q125 -2 213 -59.5 t88 -159.5q0 -48 -21 -90.5t-51 -70t-59.5 -47.5t-50.5 -29l-21 -9l-36 39q4 3 11.5 9.5t25.5 27.5t32 43t25.5 55t11.5 66q0 94 -54.5 138t-140.5 44v-528q19 -10 54 -28.5t54.5 -29t51.5 -29t51 -31.5t45 -33t41.5 -37t33 -40t27 -45.5t15.5 -50t6 -57.5q0 -64 -25.5 -122 t-72.5 -104.5t-120 -75t-161 -30.5v-211h-61v213q-146 11 -252 88.5t-106 177.5zM256 1217q0 -85 56 -145.5t159 -117.5v494q-90 -14 -152.5 -75.5t-62.5 -155.5zM532 262q116 1 186 61.5t70 153.5q0 46 -19.5 85t-59 73t-78.5 58.5t-99 56.5v-488z" />
<glyph unicode="%" horiz-adv-x="1290" d="M123 1055q0 138 69 227.5t177 89.5q117 0 190 -108q91 -56 219 -56q139 0 234 64l35 51l75 -53l-868 -1241l-76 53l774 1106q-77 -31 -174 -31q-106 0 -184 33q20 -68 20 -135q0 -139 -69 -228.5t-176 -89.5q-108 0 -177 89.5t-69 228.5zM246 1055q0 -63 5 -107.5 t17.5 -83t38 -57.5t62.5 -19t62 19.5t38 57.5t18 82.5t5 107.5q0 62 -5 107t-18 83t-38 57t-62 19t-62.5 -19t-38 -57.5t-17.5 -83t-5 -106.5zM676 317q0 139 69 228.5t177 89.5q107 0 176 -89.5t69 -228.5q0 -138 -69 -227.5t-176 -89.5q-108 0 -177 89.5t-69 227.5z M799 317q0 -62 5 -106.5t17.5 -83t38 -57.5t62.5 -19q49 0 77 36.5t36.5 90.5t8.5 139t-8.5 139.5t-36.5 91t-77 36.5q-37 0 -62.5 -19t-38 -57.5t-17.5 -83t-5 -107.5z" />
<glyph unicode="&#x26;" horiz-adv-x="1516" d="M123 467q0 83 23 155t59.5 124t87 94t100 68t103.5 44q-88 45 -147.5 119.5t-59.5 167.5q0 135 105 221t241 86q145 0 219 -58t74 -136q0 -61 -41.5 -104.5t-108.5 -43.5q-31 0 -60.5 16.5t-42 30t-20.5 25.5l33 20q41 -41 90 -41q39 0 63.5 28.5t24.5 68.5 q0 52 -46.5 92.5t-135.5 40.5q-119 0 -187.5 -80.5t-68.5 -190.5q0 -79 39 -144t113 -95q35 8 71 8q56 0 56 -29q0 -21 -17 -32t-45 -11q-36 0 -78 13q-132 -31 -205 -145.5t-73 -258.5q0 -84 26.5 -162.5t76 -142.5t130 -102.5t180.5 -38.5q74 0 141.5 23.5t121 67t85 112 t31.5 151.5q0 129 -84 211q-4 -2 -39.5 -17t-43 -17.5t-39 -15t-44 -16t-40.5 -11.5t-46 -10.5t-42.5 -5.5t-47.5 -3q-68 0 -104.5 30.5t-36.5 75.5q0 62 63.5 98.5t157.5 36.5q103 0 201 -43q164 80 285 80q103 0 158 -48.5t55 -113.5q0 -56 -41.5 -98.5t-108.5 -42.5 l-4 41q37 0 61.5 20.5t24.5 47.5q0 29 -33 50t-100 21q-80 0 -180 -39q92 -92 92 -225q0 -135 -71.5 -235.5t-184 -149.5t-246.5 -49q-100 0 -191.5 29.5t-165.5 86t-118.5 147.5t-44.5 204zM602 680q0 -37 76 -37q65 0 201 68q-72 26 -144 26q-58 0 -95.5 -15.5 t-37.5 -41.5z" />
<glyph unicode="'" horiz-adv-x="276" d="M82 1403h113l-21 -328h-72z" />
<glyph unicode="(" horiz-adv-x="686" d="M123 778q0 127 19.5 240.5t51.5 197.5t74.5 156.5t86 121t89 86.5t80 57.5t62.5 29.5l16 -47q-28 -11 -64.5 -41t-86 -98t-89.5 -157.5t-68 -233.5t-28 -312q0 -122 14.5 -231.5t38.5 -190t55.5 -149.5t63.5 -114.5t64.5 -80t57 -51.5t42.5 -24l-16 -48 q-28 10 -62.5 29.5t-80 57.5t-89 86.5t-86 121t-74.5 156.5t-51.5 198t-19.5 240z" />
<glyph unicode=")" horiz-adv-x="686" d="M84 -63q18 7 42.5 24t57 51.5t64.5 80t63.5 114.5t55.5 149.5t38.5 190t14.5 231.5q0 168 -28 312t-68 233.5t-89.5 157.5t-86 98t-64.5 41l16 47q28 -10 62.5 -29.5t80 -57.5t89 -86.5t86 -121t74.5 -156.5t51.5 -197.5t19.5 -240.5q0 -126 -19.5 -240t-51.5 -198 t-74.5 -156.5t-86 -121t-89 -86.5t-80 -57.5t-62.5 -29.5z" />
<glyph unicode="*" horiz-adv-x="799" d="M123 1229l233 -41l-153 178l129 51l69 -205l86 224l101 -84l-146 -166l236 41l-23 -129l-211 39l142 -160l-109 -88l-80 225l-73 -209l-121 49l155 183l-217 -37z" />
<glyph unicode="+" horiz-adv-x="829" d="M123 532v82h246v256h92v-256h246v-82h-246v-266h-92v266h-246z" />
<glyph unicode="," horiz-adv-x="399" d="M82 131q0 38 26.5 66t63.5 28q45 0 74.5 -36t29.5 -89q0 -38 -15 -77t-36 -67.5t-42.5 -51t-36.5 -34.5l-15 -11l-29 26q22 15 46 53t24 70q0 10 -14 20.5t-31 20t-31 31t-14 51.5z" />
<glyph unicode="-" horiz-adv-x="737" d="M123 532v82h491v-82h-491z" />
<glyph unicode="." horiz-adv-x="389" d="M82 92q0 38 27 65t65 27t65 -27t27 -65t-27 -65t-65 -27t-65 27t-27 65z" />
<glyph unicode="/" horiz-adv-x="788" d="M127 -94l463 1722l72 -18l-463 -1723z" />
<glyph unicode="0" horiz-adv-x="1167" d="M133 748q0 220 47.5 385t150.5 263.5t253 98.5q112 0 199 -56t141.5 -157t82 -235.5t27.5 -298.5t-27.5 -299t-82 -236t-141.5 -157t-199 -56q-150 0 -253 98.5t-150.5 263.5t-47.5 386zM297 748q0 -144 13.5 -262t44.5 -219.5t89.5 -158.5t139.5 -57t139 57t89 158.5 t44.5 219.5t13.5 262t-13.5 261.5t-44.5 219t-89 158.5t-139 57t-139.5 -57t-89.5 -158.5t-44.5 -219t-13.5 -261.5z" />
<glyph unicode="1" horiz-adv-x="778" d="M41 1157v51q107 0 212.5 90t135.5 197h92v-1345q0 -38 16.5 -54t55.5 -18l154 -6v-72h-635v72l184 6q39 2 55.5 18t16.5 54v1079q-15 -8 -41 -20t-101.5 -32t-144.5 -20z" />
<glyph unicode="2" horiz-adv-x="1096" d="M80 39q0 108 26.5 200.5t71.5 160.5t103.5 126.5t123 106t129 92t123 90.5t103.5 96t71.5 115.5t26.5 140.5q0 137 -86.5 222.5t-218.5 85.5q-73 0 -136.5 -29t-103 -74t-62 -96t-22.5 -98q0 -86 46 -129t114 -43t127 38l33 -40q-37 -56 -96.5 -98t-130.5 -42 q-90 0 -151.5 61t-61.5 181q0 53 19.5 110.5t58.5 112.5t93 99t129.5 71t159.5 27q107 0 203.5 -52.5t156.5 -148t60 -209.5q0 -84 -23 -152.5t-62.5 -117t-92 -89t-113 -74.5t-123 -66.5t-125.5 -71.5t-116.5 -83.5t-99.5 -108t-72 -140.5q69 94 176 94q48 0 111 -22.5 t115.5 -49t115 -49t108.5 -22.5q64 0 100 20.5t64 83.5l35 -8q-6 -48 -20.5 -90.5t-41 -82.5t-72 -63.5t-105.5 -23.5q-52 0 -117.5 30.5t-116.5 67t-111.5 67t-103.5 30.5q-36 0 -66 -17.5t-48.5 -46.5t-30 -53.5t-19.5 -51.5l-8 -26h-45q0 6 -1 19.5t-1 19.5z" />
<glyph unicode="3" horiz-adv-x="1126" d="M92 307q0 82 40.5 160t105.5 133l36 -27q-47 -93 -47 -196q0 -151 93 -235.5t221 -84.5q126 0 219.5 83.5t93.5 228.5q0 68 -27 134t-78 121.5t-134 89.5t-185 34l-20 51q69 36 129.5 80t116.5 101.5t89 130t33 149.5q0 99 -57.5 149.5t-145.5 50.5q-96 0 -171.5 -70 t-75.5 -171q0 -34 11.5 -66t27.5 -52.5t32 -36.5t27 -23l12 -7l-22 -45q-105 24 -158 82t-53 133q0 55 28 109.5t78 98.5t126 71.5t163 27.5q90 0 165 -24.5t125 -80.5t50 -136q0 -58 -33 -120.5t-86 -115.5t-102 -94t-98 -77t-58 -44q104 -4 190 -37t142.5 -86t87.5 -121.5 t31 -144.5q0 -104 -46 -188.5t-121 -136.5t-165.5 -79.5t-185.5 -27.5q-109 0 -198.5 33t-147.5 105t-58 171z" />
<glyph unicode="4" horiz-adv-x="1065" d="M72 549q128 114 227 230.5t157 214t95 194t50 168.5t13 139h164q0 -65 -18 -135t-42.5 -129.5t-69 -131t-79 -119.5t-92.5 -116t-88.5 -101.5t-88 -94.5t-71.5 -76q57 6 68 6q60 0 123 -21.5t108 -48.5t100.5 -56.5t96.5 -39.5q6 178 6 375v135l143 41q0 -266 -8 -555 q46 6 92 33l25 -31q-50 -42 -119 -55q-5 -148 -16 -375h-143q17 327 18 377q-44 11 -101 40.5t-102.5 58t-108.5 51t-124 22.5q-21 0 -42.5 -3.5t-36 -8t-32.5 -13t-26 -13t-23.5 -14t-17.5 -10.5z" />
<glyph unicode="5" horiz-adv-x="1188" d="M121 307q0 82 40.5 160t104.5 133l37 -27q-47 -90 -47 -196q0 -92 37 -169.5t115 -127t184 -49.5q151 0 241.5 103.5t90.5 250.5q0 76 -25 149.5t-80 142t-134 120.5t-197 83.5t-259 32.5l41 539h484q155 0 198 43l35 -27q-37 -44 -65 -71t-70 -53t-96.5 -38t-126.5 -12 h-295l-25 -303q157 -5 286 -38t215.5 -84.5t146 -120t86 -142.5t26.5 -153q0 -91 -36 -176t-99 -151t-158 -106t-205 -40q-119 0 -220.5 38.5t-165.5 114.5t-64 174z" />
<glyph unicode="6" horiz-adv-x="1106" d="M123 616q0 168 58 325.5t150 271t204.5 188t222.5 92.5l16 -39q-56 -25 -109 -58.5t-117 -96.5t-113.5 -141t-90 -197t-55.5 -259q13 22 38 48t64.5 58t98 52.5t122.5 20.5q122 0 216.5 -55t143 -145t48.5 -198q0 -111 -35.5 -203.5t-95.5 -153.5t-139.5 -94.5 t-167.5 -33.5q-201 0 -330 171t-129 447zM307 461q0 -177 81.5 -294.5t199.5 -117.5q108 0 189 109.5t81 281.5q0 175 -69.5 278t-188.5 103q-113 0 -203 -105.5t-90 -254.5z" />
<glyph unicode="7" horiz-adv-x="963" d="M68 1249q0 114 48.5 180t143.5 66q76 0 230 -41t243 -41q50 0 90.5 12.5t56.5 25.5l15 13l25 -30q-114 -119 -197 -232.5t-130 -204.5t-75 -184t-36.5 -162t-8.5 -147q0 -103 13.5 -191t27.5 -146t14 -91q0 -76 -75 -76q-50 0 -81 17.5t-50 71t-19 147.5q0 298 113.5 580 t312.5 480q-27 -6 -67 -6q-56 0 -200 21.5t-206 21.5q-126 0 -137 -84h-51z" />
<glyph unicode="8" horiz-adv-x="1188" d="M121 393q0 51 11.5 97t29 82.5t48 72t58.5 60.5t70.5 54t74 48t79.5 45q-113 80 -175.5 161t-62.5 185q0 96 51 170t129.5 111t167.5 37q151 0 249.5 -79t98.5 -208q0 -56 -18 -103t-53.5 -85t-73.5 -66t-94 -60q67 -42 110 -71.5t98 -77t87 -91.5t54.5 -104t22.5 -125 q0 -103 -41.5 -192t-109 -148t-154 -92.5t-176.5 -33.5q-133 0 -242 50.5t-174 145.5t-65 217zM254 385q0 -84 29.5 -152.5t78.5 -111.5t111 -66.5t129 -23.5q92 0 167 36t123 114t48 188q0 38 -10.5 74.5t-24 65t-43 62t-50 53.5t-63.5 52.5t-65 47.5t-73 48.5t-70 46.5 q-50 -30 -88.5 -58t-77.5 -67.5t-64 -82.5t-41 -101t-16 -125zM377 1260q0 -47 21 -89t65.5 -82t85 -68.5t108.5 -70.5q91 60 141 128.5t50 160.5q0 106 -65.5 171t-180.5 65q-94 0 -159.5 -59t-65.5 -156z" />
<glyph unicode="9" horiz-adv-x="1075" d="M102 1008q0 221 123 353t305 132q203 0 321 -160.5t118 -458.5q0 -168 -55 -325t-143 -270.5t-197.5 -188t-219.5 -92.5l-16 39q55 24 106.5 58.5t112 96.5t107.5 140.5t85.5 197t53.5 258.5q-115 -178 -303 -178q-122 0 -214 55t-138 144.5t-46 198.5zM274 1051 q0 -179 60.5 -280t177.5 -101q112 0 192 108.5t80 276.5q0 187 -70 287t-190 100q-106 0 -178 -108t-72 -283z" />
<glyph unicode=":" horiz-adv-x="430" d="M123 154q0 38 27 65t65 27t65 -27t27 -65q0 -39 -27 -66t-65 -27t-65 27t-27 66zM123 625q0 38 27 65t65 27t65 -27t27 -65q0 -39 -27 -66t-65 -27t-65 27t-27 66z" />
<glyph unicode=";" horiz-adv-x="430" d="M123 625q0 38 27 65t65 27t65 -27t27 -65q0 -39 -27 -66t-65 -27t-65 27t-27 66zM125 152q0 38 30.5 66t69.5 28q46 0 74.5 -35t28.5 -88q0 -38 -15 -77.5t-37 -68t-44 -51.5t-37 -35l-15 -12l-28 27q21 14 45 52.5t24 70.5q0 10 -15 20.5t-33 19.5t-33 31t-15 52z" />
<glyph unicode="&#x3c;" horiz-adv-x="932" d="M123 645l655 379l31 -61l-533 -318l533 -317l-31 -62z" />
<glyph unicode="=" d="M123 543v61h563v-61h-563zM123 686v62h563v-62h-563z" />
<glyph unicode="&#x3e;" horiz-adv-x="932" d="M123 328l532 317l-532 318l31 61l655 -379l-655 -379z" />
<glyph unicode="?" horiz-adv-x="891" d="M123 1075q0 78 50 137t122 87t151 28q135 0 228.5 -80t93.5 -223q0 -50 -36.5 -100t-88 -98t-103 -104t-88 -141t-36.5 -186v-20h-45q-6 49 -6 78q0 92 17 169t44.5 129t60.5 95t66.5 75t61 60t44.5 58t17 61q0 83 -66.5 136.5t-154.5 53.5q-85 0 -147 -55t-62 -160 q0 -29 5.5 -56t14.5 -47.5t20 -38.5t21.5 -30.5t19.5 -21.5t14 -13l5 -4l-24 -41q-4 0 -22 6.5t-49 24.5t-59 44t-48.5 73t-20.5 104zM307 92q0 38 27 65t65 27q39 0 66 -27t27 -65t-27 -65t-66 -27q-38 0 -65 27t-27 65z" />
<glyph unicode="@" horiz-adv-x="1188" d="M123 442q0 89 32 171.5t91 149.5t154 107.5t210 40.5q200 0 327.5 -119.5t127.5 -304.5q0 -138 -59.5 -225.5t-137.5 -87.5q-50 0 -90 32.5t-51 92.5q-31 -61 -80.5 -92t-105.5 -31q-101 0 -155 72.5t-54 175.5q0 113 64.5 199t176.5 86q55 0 103 -26t76 -77l4 56 q2 28 67 28q27 0 27 -24q0 -3 -8 -43.5t-15.5 -116.5t-7.5 -164q0 -50 14.5 -76t38.5 -26q80 0 80 247q0 166 -86 264.5t-256 98.5q-66 0 -127.5 -26.5t-112 -77t-81.5 -134t-31 -186.5q0 -161 96 -263t254 -102q48 0 95.5 7.5t71.5 15.5l24 8l16 -43q-10 -5 -28 -13.5 t-72.5 -22t-106.5 -13.5q-119 0 -214 37.5t-153 100.5t-88 140.5t-30 163.5zM451 428q0 -81 34 -138t95 -57q56 0 102.5 72t46.5 199q0 69 -37.5 109t-89.5 40q-71 0 -111 -67.5t-40 -157.5z" />
<glyph unicode="A" horiz-adv-x="1352" d="M-31 276q0 177 53.5 358t142 332.5t203.5 285.5t237 227t244 146.5t222 53.5q84 0 134 -43t50 -120q0 -73 -43.5 -149t-108.5 -135t-126 -101t-111 -66l-30 41q41 20 90.5 61.5t97 96.5t79.5 123t32 131q0 45 -24 72.5t-71 27.5q-78 0 -174.5 -54t-193.5 -146 t-190 -221.5t-164 -271.5t-114.5 -304.5t-43.5 -313.5q0 -246 153 -246q62 0 126.5 35t119.5 91.5t107.5 132.5t94 154t75.5 161q15 149 34 265.5t31 133.5q8 14 47 32.5t62 18.5q30 0 30 -30q0 -57 -15 -143t-38 -154q-18 -259 -18 -400q0 -115 9 -171t24 -70.5t45 -14.5 q38 0 83.5 35t84.5 87t64.5 93t41.5 72l31 62l41 -31l-31 -62q-15 -30 -34 -63t-59.5 -92t-81 -102.5t-95 -77t-105.5 -33.5q-58 0 -94 25.5t-57 96.5t-21 195q0 56 6 152q-72 -138 -162.5 -250t-203 -186t-219.5 -74q-114 0 -190.5 82.5t-76.5 244.5z" />
<glyph unicode="B" horiz-adv-x="1402" d="M-11 440q0 136 25.5 279t73 281.5t122 261t165.5 216t210 147.5t250 54q156 0 247 -81t91 -226q0 -68 -23.5 -135.5t-59 -121t-86 -106.5t-96 -89.5t-96.5 -71.5q82 -7 159.5 -39.5t142.5 -85.5t104 -134.5t39 -178.5q0 -93 -33.5 -172.5t-85.5 -131t-115.5 -88.5 t-121.5 -53t-107 -16q-73 0 -132 15.5t-94.5 39t-59.5 53t-33 56.5t-9 51q0 83 66 151.5t159 96.5l21 -33q-60 -32 -91.5 -85t-31.5 -110q0 -68 54.5 -126t150.5 -58q152 0 256 107.5t104 265.5q0 103 -57.5 181t-147 115.5t-196.5 37.5q-77 0 -205 -31l-10 10l92 143 q37 13 92 19q53 32 101.5 74.5t94.5 100.5t73.5 134t27.5 158q0 143 -69 218t-197 75q-91 0 -178.5 -44.5t-169 -141.5t-142.5 -236t-98 -342t-37 -445q0 -179 31.5 -289t91.5 -110q20 0 35.5 20t25.5 59.5t16.5 84t9.5 108t4 117t1 123.5q0 166 -6 329.5t-13 283t-7 120.5 l116 35q8 -12 20 -74t23 -179t11 -239q0 -195 -14 -345.5t-36.5 -242t-54 -150t-63.5 -80t-68 -21.5q-78 0 -139 71t-92 182t-31 238z" />
<glyph unicode="C" horiz-adv-x="1116" d="M-11 709q0 195 40.5 359.5t106.5 274.5t151 188t172 113t171 35q180 0 294 -117.5t114 -310.5q0 -183 -103.5 -317.5t-238.5 -134.5q-91 0 -153 62t-62 163q0 91 49 172.5t108 120.5l27 -27q-102 -121 -102 -256q0 -83 38.5 -133.5t94.5 -50.5q81 0 143 114t62 306 q0 177 -74 267.5t-193 90.5q-36 0 -76.5 -12t-88 -42t-91.5 -74.5t-85.5 -114.5t-72 -157t-49 -207.5t-18.5 -260.5q0 -173 40.5 -312.5t109 -225.5t153.5 -131.5t178 -45.5q133 0 254.5 97.5t216.5 287.5l11 21l41 -31l-11 -21q-109 -218 -261 -334t-322 -116 q-110 0 -211 47.5t-183 138.5t-131 239.5t-49 334.5z" />
<glyph unicode="D" horiz-adv-x="1554" d="M-220 20q0 57 66 85t221 28q100 0 245 -22l27 28q38 47 46.5 145.5t8.5 381.5q0 136 1 209t9 147.5t16.5 106.5t34 78.5t49.5 73.5t75 81l51 -45q-41 -39 -51.5 -111t-10.5 -225v-563q0 -62 -13 -112.5t-39 -89t-51.5 -65t-63.5 -57.5q36 -7 111.5 -23t115.5 -24 t94.5 -15t95.5 -7q95 0 170.5 51.5t122.5 135.5t77.5 200.5t43 236t12.5 252.5q0 334 -168.5 520.5t-486.5 186.5q-133 0 -235 -26.5t-160.5 -66t-95 -92.5t-48.5 -98.5t-12 -91.5q0 -45 7 -79t25 -66.5t56.5 -50t95.5 -17.5q23 0 41 4.5t25 9.5l6 4l12 -59 q-39 -27 -127 -27q-118 0 -200 78t-82 187q0 123 84 228.5t237 169.5t340 64q194 0 357.5 -63.5t276 -176t175 -269.5t62.5 -341q0 -177 -51.5 -337.5t-142.5 -280.5t-224.5 -191t-288.5 -71q-66 0 -152 11.5t-132.5 20.5t-151.5 31q-150 -84 -301 -84q-205 0 -205 92z M-159 20q0 -40 144 -40q118 0 217 51q-165 30 -258 30q-103 0 -103 -41z" />
<glyph unicode="E" horiz-adv-x="1269" d="M-21 440q0 365 387 506q-124 47 -194 141.5t-70 202.5q0 90 38.5 165.5t101.5 123.5t141 74t159 26q138 0 232 -61q53 10 106 10v-41q-25 0 -61 -4q61 -58 61 -139q0 -76 -47 -125t-117 -49q-72 0 -115.5 43t-43.5 104q0 55 36 104.5t109 77.5q-70 29 -150 29 q-137 0 -211.5 -92.5t-74.5 -253.5q0 -108 48.5 -194.5t137.5 -114.5q81 20 131 20q64 0 64 -39q0 -43 -74 -43q-66 0 -111 9q-136 -36 -217.5 -161t-81.5 -319q0 -110 31 -196t83.5 -138t117.5 -79t137 -27q185 0 303 131q-130 25 -211.5 117.5t-81.5 222.5q0 128 84 212.5 t199 84.5q111 0 189.5 -78t78.5 -213q0 -72 -31 -151.5t-88 -149.5q57 7 103.5 32t81 65.5t55.5 74.5t45 82l10 21l41 -31l-10 -21q-135 -273 -373 -276q-80 -81 -189.5 -127.5t-236.5 -46.5q-114 0 -212.5 39t-165.5 105.5t-105.5 156.5t-38.5 190zM604 471q0 -119 74 -199 t194 -96q90 130 90 285q0 117 -50 178t-122 61q-74 0 -130 -63t-56 -166zM608 1419q0 -41 29.5 -69.5t78.5 -28.5q53 0 83 34t30 89q0 77 -74 127q-73 -20 -110 -63t-37 -89z" />
<glyph unicode="F" horiz-adv-x="1190" d="M-81 1378q0 110 78.5 183t249.5 73q80 0 176 -15t158.5 -30t173 -45t147.5 -39q44 80 108.5 127t137.5 47q62 0 97.5 -36.5t35.5 -88.5q0 -80 -70 -121.5t-182 -41.5q-33 0 -49 2q-17 -112 -17 -250v-324h134l-21 -61h-113v-246q0 -188 -15 -269.5t-75 -150.5 q-57 -66 -157 -104.5t-234 -38.5q-176 0 -303 92.5t-127 234.5q0 61 25.5 113.5t60.5 85t78.5 58t72.5 36.5t50 15l20 -41q-164 -89 -164 -267q0 -128 82 -202t215 -74q76 0 134 20.5t102.5 66t68 126t23.5 193.5v352h-194l20 61h174v185q0 271 41 401q-49 7 -282.5 51.5 t-321.5 44.5q-266 0 -266 -153q0 -62 57 -103t147 -41q60 0 114 18.5t78 37.5l24 18l20 -43q-4 -3 -12 -8.5t-32.5 -20t-50.5 -25t-64.5 -19.5t-76.5 -9q-129 0 -202.5 64.5t-73.5 160.5zM1002 1481q75 -11 115 -11q50 0 76 25t26 59q0 30 -20.5 50t-50.5 20 q-101 0 -146 -143z" />
<glyph unicode="G" horiz-adv-x="1137" d="M-31 328q0 146 43.5 308t116.5 309.5t172 283t206.5 234t224 157.5t220.5 59q85 0 135 -43t50 -120q0 -58 -37 -118.5t-95 -108.5t-112 -83t-105 -59l-30 41q90 45 174 141t84 189q0 45 -23.5 72.5t-70.5 27.5q-75 0 -162.5 -47.5t-172 -130t-163.5 -201.5t-138.5 -254.5 t-95.5 -296.5t-36 -319q0 -144 40.5 -226t112.5 -82q85 0 197.5 98t202.5 238.5t120 264.5q24 308 43 352q15 30 54.5 56t64.5 26q27 0 27 -41q0 -59 -53 -287q-9 -39 -14.5 -116t-6.5 -135.5t-1.5 -166.5t-0.5 -135q126 92 186 215l11 21l41 -31l-11 -21 q-63 -127 -221 -245v-115q0 -258 -79 -404.5t-212 -146.5q-71 0 -117 53t-46 131q0 57 17 110t42 95t68.5 88.5t81.5 80t96 79.5q6 231 18 362q-68 -140 -165.5 -261.5t-208.5 -199t-205 -77.5q-117 0 -192 94.5t-75 284.5zM584 -338q0 -60 19.5 -91.5t51.5 -31.5 q140 0 140 512q-102 -80 -156.5 -173t-54.5 -216z" />
<glyph unicode="H" horiz-adv-x="1857" d="M-26 358q0 90 40.5 172t116 147t194 103.5t263.5 38.5h82v168q0 96 4 156.5t18 136t46.5 140.5t84.5 126q-92 -69 -251 -69q-64 0 -184 14t-169 14q-80 0 -122 -37.5t-42 -95.5q0 -57 53.5 -100t141.5 -43q50 0 96 13.5t67 26.5l21 13l21 -43q-10 -7 -28.5 -17t-72.5 -27 t-104 -17q-114 0 -185 61t-71 154q0 104 72.5 164.5t183.5 60.5q75 0 217 -22.5t209 -22.5q114 0 199 45l41 -31q-48 -65 -70.5 -164.5t-22.5 -296.5v-307h646v287q0 142 10 242.5t34 172.5t49.5 117.5t69.5 102.5l41 -31q-33 -67 -47 -171.5t-14 -350.5v-369h174l-31 -112 q-96 0 -143 2v-750l-143 -20v774q-171 7 -646 41v-224q0 -273 -107 -401.5t-343 -128.5q-171 0 -285 99.5t-114 258.5zM107 358q0 -81 25.5 -142.5t68 -96t91 -51.5t101.5 -17q144 0 210.5 84.5t66.5 292.5v336q-82 4 -113 4q-84 0 -154 -18t-118 -50t-83.5 -71.5t-55.5 -87 t-29.5 -92.5t-9.5 -91z" />
<glyph unicode="I" horiz-adv-x="1004" d="M-91 276q0 61 25.5 113.5t60.5 85t78.5 58t72.5 36.5t50 15l20 -41q-164 -89 -164 -267q0 -128 82 -202t215 -74q76 0 134 20.5t102.5 66t68 126t23.5 193.5q0 31 -16 231q-85 -33 -189 -33q-132 0 -224.5 81t-92.5 226q0 60 19 115t57 114t123 148t187 185.5t279 257.5 l41 -31q-47 -64 -69.5 -154.5t-22.5 -245.5q0 -162 29 -489q34 46 63 121l41 -21q-43 -103 -98 -168q4 -36 10 -91t9 -83.5t5.5 -67t2.5 -71.5q0 -115 -21 -197.5t-74 -140.5q-57 -65 -160 -104t-237 -39q-176 0 -303 92.5t-127 234.5zM278 932q0 -277 245 -277q71 0 134 29 q-41 397 -41 494q0 92 17.5 198t43.5 150q-105 -101 -163.5 -160.5t-111 -121t-75.5 -107.5t-36 -96t-13 -109z" />
<glyph unicode="J" horiz-adv-x="1013" d="M-11 881q0 128 30.5 251.5t81.5 220t115.5 171.5t136 115t138.5 40q178 0 273 -216t95 -654q0 -18 -1 -51.5t-1 -50.5l33 41l41 -31l-78 -88q-31 -281 -91 -502.5t-135.5 -359t-161.5 -208.5t-175 -71q-71 0 -114.5 53t-43.5 131q0 75 29 158.5t73 160t121 175.5 t148 180.5t180 198.5q13 262 13 397q0 193 -14.5 328.5t-42.5 212.5t-64 111t-84 34q-62 0 -121.5 -55.5t-108 -155.5t-78.5 -256.5t-30 -341.5q0 -188 55 -278t139 -90q70 0 127 62t88 162t31 214q0 29 -2.5 57.5t-4.5 43.5l-3 14l51 10q10 -41 10 -123q0 -125 -37 -236 t-111 -183.5t-169 -72.5q-160 0 -249 128.5t-89 353.5zM235 -287q0 -73 25 -118.5t67 -45.5q26 0 55 15.5t64.5 51t69.5 104.5t65.5 165t56.5 244.5t39 331.5q-207 -233 -274 -324q-133 -177 -159 -326q-9 -48 -9 -98z" />
<glyph unicode="K" horiz-adv-x="1438" d="M-221 276q0 61 25.5 113.5t60.5 85t78 58t72.5 36.5t50.5 15l20 -41q-164 -89 -164 -267q0 -128 82 -202t215 -74q76 0 134 20.5t102.5 66t68 126t23.5 193.5v391q-54 11 -77.5 34t-23.5 50q0 26 23.5 49t77.5 35v82q0 96 4 156t18 135t46.5 139t84.5 125 q-87 -56 -215 -56q-45 0 -140.5 9.5t-145.5 9.5q-80 0 -122 -38t-42 -95t53.5 -100.5t140.5 -43.5q50 0 96.5 13t67.5 27l21 13l20 -43q-10 -7 -28.5 -17t-72.5 -27t-104 -17q-114 0 -185 61t-71 154q0 104 72.5 164.5t183.5 60.5q79 0 195 -20.5t164 -20.5q85 0 164 41 l41 -30q-48 -65 -70.5 -165t-22.5 -296v-217q110 -9 187 -45q55 38 85.5 99t39 125t13 133.5t16.5 130.5t39.5 110t91 77.5t163.5 28.5h103v-51h-74q-65 0 -105.5 -38t-57.5 -98t-34.5 -139t-34.5 -154.5t-59.5 -151t-107.5 -122.5q57 -45 100.5 -118t69.5 -154t48 -170.5 t44 -173.5t48.5 -156t69.5 -126t101 -76q82 -33 248 -33l4 -41q-41 -10 -113 -10q-112 0 -199 22t-143 61t-97 92.5t-61 114.5t-35.5 130t-21 137t-16 136t-22.5 126.5t-38 110.5t-65 85q-88 -35 -187 -40v-279q0 -183 -16.5 -267t-77.5 -153q-57 -65 -160 -104t-237 -39 q-176 0 -303 92.5t-127 234.5zM498 881q0 -26 49 -31v57q-49 -5 -49 -26zM700 858q57 6 105 23q-47 18 -105 24v-47z" />
<glyph unicode="L" horiz-adv-x="818" d="M-161 102q0 49 56 86t145 37q84 0 192 -32q84 132 84 350q0 189 -30.5 444t-30.5 365q0 78 29 142t76.5 103.5t104.5 60.5t117 21q129 0 213 -73.5t84 -182.5q0 -105 -58.5 -189t-135.5 -138l-31 41q113 96 113 266q0 96 -47 160.5t-127 64.5q-74 0 -124.5 -64.5 t-50.5 -181.5q0 -58 31 -333.5t31 -475.5q0 -251 -156 -417q66 -30 162.5 -86t164.5 -95.5t161 -70.5t180 -31q119 0 184 35l21 -27q-49 -41 -147 -79t-191 -38q-70 0 -139.5 15.5t-119.5 34.5t-114 57.5t-96 61t-93.5 69.5t-80.5 61q-116 -73 -228 -73q-77 0 -113 33.5 t-36 78.5zM-104 102q0 -30 24.5 -45.5t67.5 -15.5q91 0 168 63q-94 60 -157 60q-45 0 -74 -16t-29 -46z" />
<glyph unicode="M" horiz-adv-x="1684" d="M-261 184q0 112 69.5 208t186.5 171l30 -31q-78 -54 -126 -134t-48 -162q0 -79 49.5 -134t128.5 -55q54 0 105 25t103 88.5t90.5 159.5t62.5 252t24 352q0 157 -20 403t-41 309l164 41q44 -122 193.5 -796.5t154.5 -692.5q37 93 249.5 705t293.5 784l82 -10 q-57 -203 -104.5 -548.5t-47.5 -620.5q0 -385 111 -385q46 0 90 67t135 250l10 21l41 -31l-10 -21q-40 -80 -62.5 -123.5t-53 -97t-51 -80t-46.5 -52.5t-51 -36t-54 -10q-114 0 -162 107.5t-48 314.5q0 297 98 815l-451 -1288l-82 20q0 50 -74 382.5t-148 639.5l-75 307 q15 -249 15 -413q0 -209 -29.5 -374.5t-76.5 -268.5t-111 -170.5t-127.5 -94t-130.5 -26.5q-106 0 -181 67t-75 166z" />
<glyph unicode="N" horiz-adv-x="1483" d="M-71 256q0 168 159 344l39 -20q-98 -148 -98 -279q0 -90 52 -146.5t126 -56.5q49 0 95.5 28.5t87.5 86t65.5 159t24.5 232.5q0 160 -37 293q-363 516 -363 680q0 51 24 76.5t58 25.5q62 0 123 -80t109 -203t88 -282q344 -445 667 -811q-127 555 -127 887q0 233 84 361 t213 128q88 0 136.5 -56t48.5 -138q0 -59 -16.5 -120t-33.5 -93l-16 -31l-39 25q43 86 43 198q0 61 -28 97t-74 36q-58 0 -101 -40t-68 -113.5t-36.5 -166t-11.5 -208.5q0 -199 32 -431.5t82 -432.5l144 -154l-121 -114q-140 134 -346 366.5t-394 484.5q17 -98 17 -260 q0 -107 -21.5 -196.5t-57.5 -149.5t-83.5 -102t-98 -61t-102.5 -19q-103 0 -174 69.5t-71 186.5zM142 1608q0 -42 249 -373q-53 167 -116.5 280t-112.5 113q-20 0 -20 -20z" />
<glyph unicode="O" horiz-adv-x="1432" d="M-11 809q0 129 29.5 247.5t73.5 204.5t103.5 161t110.5 121t104 81l43 -29q-139 -112 -220 -323t-81 -463q0 -167 28 -303.5t75 -229t111.5 -156t136.5 -92t151 -28.5q106 0 193.5 47t154 142t103.5 253t37 367q0 393 -113 600t-287 207q-92 0 -162 -62.5t-109.5 -165.5 t-59 -220t-19.5 -242q0 -111 10 -195.5t20 -113.5l11 -29l-59 -15q-109 127 -109 394q0 91 18.5 186.5t59.5 190.5t99.5 169t145.5 120t189 46q132 0 236 -66.5t168 -179.5t97.5 -254.5t33.5 -299.5q0 -138 -26 -271t-80 -252.5t-130.5 -210t-185.5 -143.5t-236 -53 q-149 0 -275.5 69.5t-211 187.5t-131.5 274t-47 329z" />
<glyph unicode="P" horiz-adv-x="1218" d="M-11 543q0 227 66 435.5t178 362t270.5 245t335.5 91.5q205 0 333 -116t128 -293q0 -123 -41.5 -231t-113 -188t-166.5 -139.5t-204.5 -90.5t-224.5 -35q-6 -268 -18 -348q-21 -150 -80.5 -218.5t-155.5 -68.5q-136 0 -221.5 155.5t-85.5 438.5zM102 440q0 -89 9 -164.5 t28 -139t54 -100t83 -36.5q30 0 51.5 11.5t41.5 44t30 101t10 171.5q0 46 -1 134.5t-1 129.5q-17 3 -32 7t-21 7l-7 2l11 47q16 -6 47 -12q-2 147 -6 291t-7 214l-4 71q21 20 62 20q102 0 102 -72q0 -393 -2 -532q128 0 237 50t182.5 133.5t115 192.5t41.5 228q0 78 -21 145 t-61.5 119.5t-106.5 82.5t-149 30q-106 0 -205 -46.5t-186.5 -144t-153 -234.5t-103.5 -330.5t-38 -420.5z" />
<glyph unicode="Q" horiz-adv-x="1403" d="M0 821q0 176 54.5 336.5t144.5 274t209.5 180.5t246.5 67q132 0 244 -57t188 -155.5t119 -231.5t43 -283q0 -276 -100 -517.5t-268 -371.5q112 -63 184 -63q70 0 142.5 102.5t185.5 327.5l10 21l41 -31l-10 -21q-139 -277 -201 -372q-116 -164 -209 -170q-43 0 -98 20.5 t-92.5 42t-100.5 60.5q-78 -31 -170 -31q-87 0 -135.5 34t-48.5 89t39.5 89t113.5 34q108 0 279 -93q127 111 200.5 323t73.5 497q0 350 -115.5 528t-314.5 178q-99 0 -180.5 -46t-138.5 -126t-96 -188.5t-57.5 -231.5t-18.5 -258q0 -241 51 -407.5t123 -227.5l-31 -41 q-33 23 -67.5 55t-79.5 95t-79 138t-57.5 188.5t-23.5 242.5zM451 51q0 -23 28 -37t74 -14q59 0 117 18q-112 68 -168 68q-23 0 -37 -9.5t-14 -25.5z" />
<glyph unicode="R" horiz-adv-x="1300" d="M-21 594q0 227 73 428t199 345t303 228t377 84t310 -98t110 -250q0 -91 -38 -179.5t-101.5 -160.5t-148 -135.5t-175 -109t-184.5 -76.5q50 -45 98 -111.5t84 -135t78.5 -146t82 -146.5t94 -133t115 -110.5t144.5 -74.5t183 -28l4 -41q-41 -10 -113 -10 q-112 0 -204.5 23.5t-158 65t-118 95.5t-89 119t-66 131.5t-54.5 136t-48 130.5t-53 117.5t-65 92.5q-24 -5 -78 -14q-2 -227 -18 -344q-21 -150 -80.5 -218.5t-155.5 -68.5q-136 0 -221.5 155.5t-85.5 438.5zM92 492q0 -90 9 -165t28 -139t54 -100.5t83 -36.5 q30 0 51.5 11.5t41.5 44t30 101t10 171.5q0 156 -2 250q-80 19 -80 78q0 26 20.5 44.5t55.5 24.5l-15 443q21 20 62 20q102 0 102 -72q0 -290 -2 -407q59 -16 117 -53q78 21 149 54t140 84.5t119 115t81 151.5t31 188q0 161 -82.5 239.5t-214.5 78.5q-125 0 -239 -41.5 t-215 -131.5t-174.5 -220t-116.5 -318t-43 -415zM368 707q0 -8 1 -12t7 -9t19 -8v47q-27 -6 -27 -18zM540 682q11 0 31 4q-18 11 -31 16v-20z" />
<glyph unicode="S" horiz-adv-x="1096" d="M0 1145q0 153 83.5 276.5t221.5 190.5t299 67q192 0 288.5 -81t96.5 -197q0 -110 -66 -194t-135 -113l-30 41q45 34 72.5 93t27.5 122q0 50 -17 96t-52 85.5t-96 63t-140 23.5q-183 0 -317 -111t-134 -258q0 -66 29 -123t78 -100t112.5 -82t133.5 -74.5t140 -71.5 t133.5 -78.5t112.5 -90.5t78 -112.5t29 -139.5q0 -111 -68 -209t-188 -158.5t-262 -60.5q-94 0 -167.5 17.5t-118 45t-73.5 64t-40 70.5t-11 69q0 56 22.5 104t56 79.5t77 56.5t80.5 37.5t72 19.5l10 -51q-13 -4 -32.5 -13.5t-49.5 -30.5t-54 -46.5t-41.5 -66t-17.5 -85.5 q0 -88 73.5 -153.5t201.5 -65.5q94 0 167.5 22t115.5 55t69 77t36 82.5t9 76.5q0 82 -45 149t-117 113.5t-158.5 88.5t-173.5 86.5t-159 96t-117 127.5t-45 171z" />
<glyph unicode="T" horiz-adv-x="1189" d="M-131 1378q0 110 78.5 183t249.5 73q80 0 176 -15t158.5 -30t173 -45t147.5 -39q44 80 108.5 127t137.5 47q62 0 97.5 -36.5t35.5 -88.5q0 -80 -70 -121.5t-182 -41.5q-33 0 -49 2q-21 -79 -21 -205q0 -135 36 -391.5t36 -401.5q0 -212 -118 -329t-369 -117 q-177 0 -303.5 92.5t-126.5 234.5q0 61 25.5 113.5t60 85t78 58t72.5 36.5t50 15l21 -41q-164 -87 -164 -267q0 -128 82 -202t215 -74q70 0 128 17.5t105.5 54.5t74 104t26.5 158q0 125 -33 382.5t-33 391.5q0 173 39 297q-49 7 -282.5 51.5t-321.5 44.5q-266 0 -266 -153 q0 -62 57 -103t147 -41q60 0 114 18.5t78 37.5l24 18l20 -43q-4 -3 -12 -8.5t-32.5 -20t-50.5 -25t-64.5 -19.5t-76.5 -9q-129 0 -202.5 64.5t-73.5 160.5zM952 1481q75 -11 115 -11q50 0 76 25t26 59q0 30 -20.5 50t-50.5 20q-101 0 -146 -143z" />
<glyph unicode="U" horiz-adv-x="1551" d="M-221 911q0 131 66.5 271.5t168 248.5t229 178t243.5 70q98 0 156.5 -63t58.5 -182q0 -99 -45 -262t-98.5 -311.5t-98.5 -320t-45 -284.5q0 -63 14.5 -110.5t35.5 -74.5t50 -43.5t54 -22t51 -5.5q112 0 214.5 100.5t188.5 274.5v47q0 190 22 407.5t59 408t93.5 316 t118.5 125.5q61 0 61 -133q0 -160 -53.5 -438.5t-148.5 -546.5v-63q0 -194 30.5 -289.5t100.5 -95.5q53 0 96.5 63.5t138.5 253.5l11 21l40 -31l-10 -21q-106 -212 -147 -273q-69 -102 -145 -121q-22 -5 -46 -5q-97 0 -149.5 73t-67.5 216q-186 -340 -418 -340 q-67 0 -126.5 23.5t-107 69.5t-75.5 122t-28 174q0 122 31.5 257.5t77 252.5t90.5 227t76.5 216t31.5 184q0 153 -123 153q-106 0 -211.5 -73.5t-181 -182.5t-123 -236.5t-47.5 -234.5q0 -76 29 -114.5t83 -38.5q77 0 156.5 88.5t130.5 228.5l41 -21q-18 -43 -39 -84 t-56 -91t-72.5 -86.5t-87.5 -61.5t-103 -25q-88 0 -141.5 55.5t-53.5 159.5zM1178 723q63 214 99 426.5t36 333.5q0 104 -29 104q-37 0 -65 -268t-41 -596z" />
<glyph unicode="V" horiz-adv-x="1361" d="M-200 1106q0 140 74.5 274t194 216.5t243.5 82.5q268 0 268 -389q0 -123 -26.5 -420.5t-26.5 -437.5q0 -131 11.5 -216.5t36 -129.5t54.5 -60t76 -16q121 0 237.5 168.5t186.5 421t70 496.5q0 481 -189 481q-84 0 -163 -92l-41 31q42 52 118 102.5t158 50.5 q229 0 229 -450q0 -128 -20 -271t-56.5 -284.5t-92 -270.5t-122 -228t-152 -157.5t-177.5 -58.5q-63 0 -113.5 20.5t-85 53.5t-60.5 82t-41 99t-23.5 112.5t-11.5 114.5t-3 112q0 169 32.5 448.5t32.5 384.5q0 142 -31.5 197t-101.5 55q-86 0 -168 -74t-133 -193t-51 -243 q0 -231 121 -231q92 0 150 96t73 258l47 -2q-4 -48 -13.5 -95.5t-31 -105t-51.5 -100.5t-79.5 -72.5t-110.5 -29.5q-41 0 -81 15.5t-76 46t-58.5 84.5t-22.5 124z" />
<glyph unicode="W" horiz-adv-x="1927" d="M-211 948q0 127 58 260.5t148 236t206.5 168.5t226.5 66q128 0 198 -68t70 -208q0 -94 -33 -239t-72.5 -274.5t-72.5 -288.5t-33 -277q0 -132 42 -192t124 -60q72 0 149 79t133 201t75 248q2 109 14 238.5t24 204.5l11 75l159 43q-43 -296 -43 -710q0 -122 16 -210 t45.5 -137t65.5 -71.5t80 -22.5q79 0 144.5 72.5t107.5 192.5t65 272t23 315q0 161 -16.5 288.5t-42.5 205t-61 128t-69 70t-69 19.5q-83 0 -157 -103l-46 27q15 24 38 49.5t57 55t79.5 48.5t92.5 19q143 0 223 -185.5t80 -498.5q0 -197 -28.5 -378.5t-83.5 -330.5 t-145 -238t-202 -89q-140 0 -232.5 113t-119.5 327q-63 -165 -171 -277t-231 -112q-63 0 -116 20.5t-98.5 65t-71 127t-25.5 195.5q0 122 36.5 277.5t79.5 278t79.5 260.5t36.5 230q0 174 -136 174q-81 0 -158 -44t-136 -117t-104.5 -163t-69 -186t-23.5 -182 q0 -199 119 -199q76 0 147.5 88.5t110.5 229.5l43 -21q-14 -43 -32 -84t-48.5 -91t-64.5 -86.5t-82 -61.5t-101 -25q-99 0 -156 67t-57 195z" />
<glyph unicode="X" horiz-adv-x="1444" d="M-8 14l41 158q60 -31 112 -31q38 0 78 21t75 54t73 84.5t68.5 100.5t64.5 114t57 114t51 110q-62 138 -157 351q-146 328 -188.5 405.5t-84.5 77.5q-29 0 -59.5 -34.5t-48 -69.5t-29.5 -68l-45 20q15 47 35 87t48.5 77.5t68 59.5t84.5 22q84 0 143.5 -91.5t229.5 -458.5 q19 -41 30 -64t29 -62t34 -73q133 327 190 434q91 173 189 228q63 36 144 36l78 -4l-19 -142q-49 11 -86 11q-34 0 -60 -5t-53 -21t-47.5 -35.5t-47.5 -61t-49 -83t-55.5 -116.5t-63.5 -147t-77 -187q71 -153 128 -265.5t120.5 -221.5t118 -167t96.5 -58q22 0 44.5 15.5 t40 37t39.5 59t35 65t34.5 73.5t32.5 67l10 21l41 -31l-10 -21q-13 -26 -35.5 -72.5t-34.5 -70t-31.5 -61t-32.5 -57t-32 -46t-35.5 -40t-37 -27.5t-42.5 -19.5t-47 -5.5q-27 0 -54 10t-50 25t-49.5 43.5t-47 53.5t-48 68.5t-46 75.5t-47 86.5t-46 89.5t-48.5 97.5t-49 97.5 q-311 -661 -556 -661q-32 0 -60.5 7t-41.5 14z" />
<glyph unicode="Y" horiz-adv-x="1479" d="M-190 901q0 131 66.5 273t168 252t229.5 181.5t243 71.5q98 0 156.5 -63t58.5 -182q0 -99 -45 -263.5t-98.5 -314.5t-98.5 -323.5t-45 -286.5q0 -63 14.5 -109.5t35.5 -72t50.5 -40.5t53.5 -19.5t51 -4.5q127 0 238 120t204 326q16 549 37 760q42 402 152 462 q22 11 45 11q33 0 57 -34t24 -99q0 -140 -41 -380.5t-116 -483.5v-55q0 -702 -68 -1108l-153 -21q42 269 61 840q-196 -389 -451 -389q-68 0 -126.5 21.5t-106.5 65.5t-76 119t-28 173q0 122 31.5 258.5t77 255t90.5 230t76.5 218.5t31.5 185q0 153 -123 153 q-85 0 -171 -48.5t-155 -128.5t-123.5 -176t-84 -197.5t-29.5 -186.5q0 -76 29 -115t83 -39q77 0 156.5 88.5t130.5 229.5l41 -21q-23 -55 -53 -107.5t-75 -111t-105 -94t-125 -35.5q-88 0 -141.5 55.5t-53.5 159.5zM1248 862q44 184 70 354t26 267q0 104 -29 104 q-41 0 -54 -123.5t-13 -380.5v-221z" />
<glyph unicode="Z" horiz-adv-x="1332" d="M-61 102q0 70 70 127.5t186 57.5q78 0 164 -21q109 149 276 492h-168l19 61h178q19 39 72 162t102 222.5t100 178.5q-51 13 -184 56t-235 65.5t-197 22.5q-193 0 -193 -144q0 -59 44 -96t131 -37q52 0 99.5 18.5t68.5 36.5l22 19l18 -43q-4 -3 -10.5 -8.5t-28.5 -20 t-45 -25t-57 -19.5t-67 -9q-111 0 -174.5 59.5t-63.5 145.5q0 116 82.5 196t241.5 80q110 0 218.5 -27.5t249 -82.5t173.5 -66q100 105 202 105q53 0 81 -24.5t28 -67.5q0 -67 -47 -115.5t-154 -48.5q-63 0 -145 16q-49 -74 -95 -167t-102.5 -226.5t-66.5 -155.5h182 l-19 -61h-192q-59 -122 -93 -189.5t-87 -160.5t-101 -158q63 -18 169.5 -59t192.5 -65t167 -24q65 0 114 17.5t92.5 60.5t80 99.5t83.5 150.5l11 21l41 -31l-11 -21q-49 -97 -75 -145t-73.5 -118t-89 -103t-103.5 -58.5t-134 -25.5q-90 0 -181.5 25t-228 82t-165.5 67 q-123 -123 -262 -123q-50 0 -80.5 27t-30.5 75zM-16 98q0 -20 20 -33.5t54 -13.5q96 0 192 90q-72 23 -147 23q-119 0 -119 -66zM1090 1487q52 -12 96 -12q51 0 77 14.5t26 34.5q0 14 -15 23t-41 9q-71 0 -143 -69z" />
<glyph unicode="[" horiz-adv-x="512" d="M143 -51v1792h226v-51h-82v-1690h82v-51h-226z" />
<glyph unicode="\" horiz-adv-x="737" d="M96 1569l72 18l463 -1722l-72 -19z" />
<glyph unicode="]" horiz-adv-x="512" d="M143 0h82v1690h-82v51h226v-1792h-226v51z" />
<glyph unicode="^" horiz-adv-x="901" d="M123 676l328 543l327 -543l-41 -31l-286 410l-287 -410z" />
<glyph unicode="_" horiz-adv-x="850" d="M123 0v82h604v-82h-604z" />
<glyph unicode="`" horiz-adv-x="246" d="M0 1116l133 62l113 -256l-41 -31z" />
<glyph unicode="a" horiz-adv-x="874" d="M-25 348q0 203 98.5 337t233.5 134q71 0 126.5 -55.5t72.5 -108.5l12 97q4 33 48 50t73 17q12 0 16 -4t4 -16q0 -10 -13.5 -86t-26.5 -203.5t-13 -261.5q0 -135 45 -135q30 0 74 63t119 213l30 62l41 -31l-30 -62q-95 -189 -155.5 -273.5t-119.5 -84.5q-111 0 -127 229 q-52 -102 -116.5 -165.5t-130.5 -63.5q-109 0 -185 90t-76 258zM117 420q0 -147 46.5 -227t125.5 -80q75 0 141 112.5t66 286.5q0 94 -52.5 170t-121.5 76q-87 0 -146 -94.5t-59 -243.5z" />
<glyph unicode="b" horiz-adv-x="797" d="M-20 614q0 230 21.5 404.5t58.5 275.5t82.5 151t97.5 50q71 0 71 -113q0 -136 -54.5 -378.5t-125.5 -471.5q3 -231 54 -356t143 -125q122 0 166 189q-108 24 -184.5 118.5t-76.5 225.5q0 107 50.5 167t124.5 60q92 0 166.5 -100t74.5 -273q0 -66 -16 -135q105 32 153 127 l11 21l41 -31l-11 -21q-33 -66 -89 -107.5t-124 -53.5q-39 -107 -114.5 -172.5t-177.5 -65.5q-342 0 -342 614zM131 698q50 182 82.5 365t32.5 295q0 45 -21 45q-32 0 -61.5 -232t-32.5 -473zM299 592q0 -114 59 -193t146 -100q8 49 8 121q0 138 -39 224.5t-92 86.5 q-35 0 -58.5 -37.5t-23.5 -101.5z" />
<glyph unicode="c" horiz-adv-x="639" d="M-14 338q0 104 29.5 195.5t76.5 153t106 97t119 35.5q83 0 122.5 -41t39.5 -92q0 -45 -36.5 -87t-94.5 -56l-10 28q29 45 29 103q0 84 -78 84q-65 0 -118.5 -90.5t-53.5 -249.5q0 -137 55.5 -221t151.5 -84q146 0 305 317l10 21l41 -31l-10 -21q-103 -205 -208 -302 t-202 -97q-126 0 -200 98t-74 240z" />
<glyph unicode="d" horiz-adv-x="963" d="M-33 322q0 69 15 139.5t46 134.5t73.5 114t101 79.5t125.5 29.5q117 0 184 -100q1 370 68 573t178 203q42 0 62 -22.5t20 -83.5q0 -253 -185 -787q2 -164 5.5 -257.5t12.5 -147t21 -69t33 -15.5q43 0 91 72t134 245l11 21l41 -31l-11 -21q-117 -234 -183 -316.5 t-138 -82.5q-70 0 -103.5 71t-46.5 238q-153 -309 -319 -309q-115 0 -175.5 92t-60.5 230zM131 393q0 -117 36 -198.5t99 -81.5q65 0 123.5 68.5t126.5 228.5q-4 126 -4 219q-22 64 -66.5 101.5t-97.5 37.5q-70 0 -121 -58t-73.5 -141t-22.5 -176zM655 750q64 205 88.5 335 t24.5 267q0 82 -35 82q-78 0 -78 -574v-110z" />
<glyph unicode="e" horiz-adv-x="610" d="M-43 338q0 208 106 344.5t246 136.5q67 0 104.5 -34.5t37.5 -88.5q0 -25 -6.5 -48.5t-24 -48t-31.5 -42.5t-47 -44.5t-51 -40.5t-63.5 -43.5t-64 -41t-71.5 -43.5q15 -106 68 -168.5t135 -62.5q146 0 305 317l10 21l41 -31l-10 -21q-103 -205 -207.5 -302t-202.5 -97 q-126 0 -200 98t-74 240zM88 395q52 28 103 67.5t93 96t42 107.5q0 39 -21 62.5t-53 23.5q-62 0 -113 -85t-51 -249v-23z" />
<glyph unicode="f" horiz-adv-x="428" d="M-2 707q0 368 74.5 578t181.5 210q92 0 92 -123q0 -268 -205 -790v-224q16 -22 46.5 -34.5t58.5 -12.5q112 0 172 119l10 21l41 -31l-10 -21q-37 -74 -98 -117.5t-132 -43.5q-45 0 -88 18v-758l-102 -10q-41 568 -41 1219zM141 711q123 354 123 610q0 102 -43 102 q-80 0 -80 -563v-149z" />
<glyph unicode="g" horiz-adv-x="850" d="M-6 377q0 82 19.5 160t56 141.5t95 102t130.5 38.5q126 0 197 -94v12q0 35 38 58.5t74 23.5q31 0 31 -20q0 -5 -2 -35t-4 -84t-2 -117v-434q134 168 213 322l10 20l41 -31l-10 -20q-82 -165 -254 -377v-217q0 -175 -58 -256.5t-157 -81.5q-58 0 -95.5 36.5t-37.5 96.5 q0 79 52 164.5t161 218.5v189q-47 -92 -116 -142.5t-140 -50.5q-101 0 -171.5 97.5t-70.5 279.5zM137 440q0 -158 40 -248t120 -90q58 0 115.5 61t79.5 130v282q0 87 -49.5 142t-114.5 55q-91 0 -141 -98.5t-50 -233.5zM336 -373q0 -32 17.5 -55t47.5 -23q19 0 33 7 t28.5 28.5t22 69.5t7.5 121v149q-156 -189 -156 -297z" />
<glyph unicode="h" horiz-adv-x="786" d="M-43 1126q0 118 46 184t106 66q198 0 15 -823q-2 -10 -3 -14q0 -6 1 -17t1 -16q18 42 39.5 81t51.5 82.5t61.5 75.5t70.5 53t78 21q75 0 113 -50t38 -144q0 -92 -22.5 -240t-22.5 -211q0 -61 31 -61q28 0 88 92t127 225l10 21l41 -31l-10 -21q-34 -68 -58 -113.5 t-60 -105t-65.5 -94.5t-64.5 -60.5t-67 -25.5q-43 0 -74 30.5t-31 102.5q0 89 26 281.5t26 226.5q0 109 -64 109q-37 0 -75 -33t-72.5 -92t-57.5 -108t-49 -114q0 -11 1 -30t1 -25q0 -283 -92 -414l-76 23q35 118 35 360q0 132 -21.5 400.5t-21.5 408.5zM68 1204 q0 -111 38 -514q18 93 32 192.5t22 199t-2.5 163.5t-40.5 64q-21 0 -35 -25.5t-14 -79.5z" />
<glyph unicode="i" horiz-adv-x="494" d="M-10 430l10 21q30 59 50.5 131t32 127.5t17.5 68.5q10 20 37.5 30.5t44.5 10.5q22 0 29.5 -9t7.5 -32q0 -7 -7.5 -79.5t-14.5 -184.5t-7 -215q0 -60 5.5 -99t16 -55.5t20.5 -22t24 -5.5q35 0 86.5 68.5t140.5 244.5l11 21l41 -31l-11 -21q-33 -65 -51 -100t-49 -90 t-52.5 -85t-49.5 -63t-54 -47t-51 -14q-83 0 -120.5 73t-37.5 253q0 73 2 114h-10q-10 -20 -20 -41zM92 1024q0 34 24 58t58 24q35 0 58.5 -24t23.5 -58q0 -35 -23.5 -58.5t-58.5 -23.5q-34 0 -58 23.5t-24 58.5z" />
<glyph unicode="j" horiz-adv-x="399" d="M-154 -379q0 81 52 166t163 221v432h-10l-20 -41l-41 31l10 21q30 59 41 131.5t12.5 127t7.5 68.5q10 20 46.5 30.5t56.5 10.5q21 0 26 -8t5 -33v-647q130 170 194 299l10 21l41 -31l-10 -21q-64 -128 -235 -350v-223q0 -175 -58.5 -256.5t-156.5 -81.5q-58 0 -96 36.5 t-38 96.5zM-96 -373q0 -32 17.5 -55t47.5 -23q19 0 33 7t28.5 28.5t22.5 69.5t8 121v151q-77 -96 -117 -167t-40 -132zM51 1024q0 34 24 58t58 24q35 0 58.5 -24t23.5 -58q0 -35 -23.5 -58.5t-58.5 -23.5q-34 0 -58 23.5t-24 58.5z" />
<glyph unicode="k" horiz-adv-x="805" d="M-25 72q0 64 21 159v517q0 366 70.5 556.5t179.5 190.5q102 0 102 -133q0 -107 -60.5 -323.5t-148.5 -424.5v-22q59 94 149.5 160.5t174.5 66.5q80 0 129 -44t49 -124q0 -90 -80.5 -169.5t-247.5 -129.5q157 -239 236 -239q50 0 107.5 78.5t138.5 238.5l10 21l41 -31 l-10 -21q-105 -209 -150 -276q-84 -123 -168 -123q-83 0 -162.5 79.5t-183.5 237.5l-35 -6q-3 -179 -16 -274q-5 -37 -53 -37q-49 0 -71 22t-22 50zM135 737q74 197 103.5 358t29.5 257q0 52 -9.5 72t-31.5 20q-42 0 -62.5 -164t-29.5 -543zM137 360q193 28 282 94.5 t89 159.5q0 49 -30 84t-79 35q-66 0 -137.5 -65.5t-122.5 -161.5q0 -30 -1 -74t-1 -72z" />
<glyph unicode="l" horiz-adv-x="436" d="M-14 594q0 450 70.5 675.5t179.5 225.5q71 0 71 -113q0 -136 -54.5 -378.5t-125.5 -471.5q8 -163 19.5 -251t27 -121t41.5 -33q61 0 211 303l10 21l41 -31l-10 -21q-112 -224 -176.5 -311.5t-130.5 -87.5q-61 0 -98.5 54.5t-56.5 185.5t-19 354zM127 698q50 185 82.5 367 t32.5 293q0 45 -21 45q-32 0 -61.5 -232t-32.5 -473z" />
<glyph unicode="m" horiz-adv-x="1167" d="M-33 49q0 49 31 191q0 132 -1 274t-1 162q0 84 6 102q16 41 100 41q18 0 24.5 -10.5t6.5 -34.5q0 -123 -2 -178q41 97 104 160t134 63q83 0 117.5 -63.5t41.5 -180.5q133 244 291 244q74 0 110 -46.5t36 -129.5q0 -69 -25 -241.5t-25 -239.5q0 -62 31 -62q30 0 72.5 69 t138.5 261l10 21l41 -31l-10 -21q-125 -250 -179.5 -324.5t-123.5 -74.5q-109 0 -109 133q0 86 26 285t26 250q0 38 -16.5 60t-47.5 22q-60 0 -128.5 -83.5t-115.5 -191.5q0 -399 -30 -444q-9 -13 -41 -22t-51 -9q-39 0 -39 47q0 37 28 205q6 240 6 268q0 113 -16.5 170.5 t-60.5 57.5q-54 0 -99.5 -67.5t-97.5 -193.5v-12q-8 -234 -8 -403q0 -34 -40 -53t-73 -19q-41 0 -41 49z" />
<glyph unicode="n" d="M-33 49q0 49 31 191v489q0 41 4 49q18 41 111 41q17 0 23.5 -9t6.5 -32q-8 -69 -12 -198q67 105 144.5 172t154.5 67q73 0 109 -46.5t36 -129.5q0 -69 -21.5 -240.5t-21.5 -238.5q0 -66 41 -66q29 0 79.5 70.5t146.5 261.5l10 21l41 -31l-10 -21q-116 -231 -187.5 -315 t-140.5 -84q-115 0 -115 133q0 86 26 285t26 250q0 38 -16.5 60t-47.5 22q-53 0 -128.5 -85.5t-127.5 -189.5q-8 -234 -8 -414q0 -27 -40.5 -44t-72.5 -17q-41 0 -41 49z" />
<glyph unicode="o" horiz-adv-x="797" d="M-10 410q0 83 23.5 157t58 122.5t74.5 83.5t71 51t49 16l13 -35q-6 -4 -16 -12t-35 -40t-44 -72.5t-35 -113t-16 -157.5q0 -146 53.5 -252.5t141.5 -106.5q122 0 166 189q-108 24 -184.5 118.5t-76.5 225.5q0 107 50.5 167t124.5 60q92 0 166.5 -100t74.5 -273 q0 -66 -16 -135q105 32 153 127l11 21l41 -31l-11 -21q-33 -66 -89 -107.5t-124 -53.5q-39 -107 -114.5 -172.5t-177.5 -65.5q-150 0 -241 118t-91 292zM299 592q0 -114 59 -193t146 -100q8 49 8 121q0 138 -39 224.5t-92 86.5q-35 0 -58.5 -37.5t-23.5 -101.5z" />
<glyph unicode="p" horiz-adv-x="778" d="M-18 -481q0 2 3 34.5t6 108.5t3 184v553q0 131 -1.5 213.5t-3 113t-1.5 36.5q0 19 36 38t70 19q37 0 37 -41v-147q37 81 101 134.5t147 53.5q77 0 134 -49t84.5 -126t27.5 -169q0 -197 -76 -330q121 91 219 285l10 21l41 -31l-10 -21q-94 -187 -220 -293t-263 -106 q-60 0 -113 26.5t-82 67.5v-473q0 -76 -23.5 -104.5t-84.5 -28.5q-41 0 -41 31zM133 305q0 -106 52 -171.5t126 -65.5q172 0 172 364q0 136 -39 217.5t-118 81.5q-80 0 -136.5 -99.5t-56.5 -211.5v-115z" />
<glyph unicode="q" horiz-adv-x="829" d="M-6 360q0 111 27 201.5t71.5 145t97.5 83.5t107 29q70 0 123 -39.5t76 -91.5q4 79 24.5 105t75.5 26q41 0 41 -31q0 -5 -2.5 -32t-5 -78.5t-2.5 -114.5v-438q94 108 192 305l10 21l41 -31l-10 -21q-102 -199 -233 -358v-369q0 -113 -20.5 -148.5t-82.5 -35.5 q-41 0 -41 31q0 5 2.5 32.5t5.5 78.5t3 114v424q-39 -81 -98.5 -124.5t-131.5 -43.5q-126 0 -198 103t-72 257zM127 426q0 -154 55 -233.5t131 -79.5q178 0 183 313v45q0 60 -20 124.5t-64 113.5t-101 49q-79 0 -131.5 -78.5t-52.5 -253.5z" />
<glyph unicode="r" horiz-adv-x="604" d="M-61 791q0 44 28 70t66 26q46 0 71 -35t25 -84q39 0 127 25.5t123 25.5q51 0 51 -41q0 -24 -32 -132t-63.5 -236.5t-31.5 -204.5q0 -53 12 -72.5t43 -19.5q76 0 236 317l10 21l41 -31l-10 -21q-116 -230 -190 -314.5t-148 -84.5q-61 0 -97 46.5t-36 137.5 q0 70 29.5 160.5t66 162t73 147.5t46.5 114l-6 6q-17 0 -58 -27.5t-95 -57t-99 -34.5q-3 -31 -27 -104.5t-53 -130.5l-10 -21l-41 31l10 21q28 55 47 116.5t23 91.5q-55 6 -93 41.5t-38 90.5zM18 811q0 -21 19 -33t37 -12q0 28 -9.5 46.5t-25.5 18.5q-9 0 -15 -6t-6 -14z " />
<glyph unicode="s" horiz-adv-x="666" d="M-10 430l102 223q-38 37 -55 68.5t-17 73.5q0 48 31.5 82t73.5 34q37 0 56.5 -20.5t19.5 -54.5q0 -31 -27 -119q29 -23 87 -52.5t109.5 -57t102.5 -63.5t81 -86t30 -110q0 -143 -84 -245.5t-228 -102.5q-103 0 -167 62.5t-64 146.5q0 79 56.5 132.5t133.5 53.5 q24 0 50 -6v-29q-66 0 -117 -49.5t-51 -120.5q0 -66 46 -105.5t124 -39.5q80 0 129 57.5t49 149.5q0 49 -23.5 94t-63.5 82.5t-80.5 68t-89 65.5t-73.5 59l-100 -222zM96 831q0 -46 41 -83q21 45 21 81q0 16 -9 26.5t-22 10.5q-14 0 -22.5 -9.5t-8.5 -25.5z" />
<glyph unicode="t" horiz-adv-x="477" d="M-66 758l11 61h88q6 47 17.5 129t21 151t16.5 130h102q-16 -151 -30 -410h194l-10 -61h-188q-17 -235 -17 -379q0 -148 18 -207t58 -59q48 0 115 88.5t137 228.5l10 21l41 -31l-10 -21q-197 -399 -348 -399q-164 0 -164 328q0 181 29 430h-91z" />
<glyph unicode="u" d="M-8 287q0 102 10.5 220t21.5 189.5t17 87.5q7 17 40.5 26t63.5 9q35 0 35 -35q0 -3 -22.5 -184t-22.5 -272q0 -110 24 -162.5t77 -52.5q47 0 94.5 68.5t81.5 193.5q6 59 12.5 150t11.5 157t8 88q5 24 40.5 36.5t60.5 12.5q30 0 30 -31q0 -24 -16 -258t-16 -284 q0 -75 8.5 -110.5t32.5 -35.5q18 0 38.5 20t48 66.5t51 91.5t63.5 124q9 19 14 28l10 21l41 -31l-10 -21q-14 -27 -39 -78q-39 -79 -57 -114.5t-47.5 -85t-49.5 -70t-47.5 -36t-56.5 -15.5q-74 0 -103.5 54.5t-29.5 162.5q-2 -2 -18 -34t-34 -58t-45 -57t-64.5 -49.5 t-78.5 -18.5q-32 0 -60.5 12.5t-56.5 42.5t-44.5 89.5t-16.5 142.5z" />
<glyph unicode="v" horiz-adv-x="694" d="M-16 297q0 123 15.5 291t29.5 192q22 39 94 39q45 0 45 -61q0 -37 -20.5 -232.5t-20.5 -328.5q0 -67 22 -95t64 -28q56 0 111.5 55t91.5 141q-60 37 -97.5 118.5t-37.5 197.5q0 113 44.5 169t106.5 56q57 0 94 -46t37 -147q0 -153 -65 -321q3 0 10 -1t10 -1q98 0 166 135 l10 21l41 -31l-10 -21q-39 -76 -95 -115.5t-118 -39.5q-23 0 -35 4q-49 -109 -127 -178.5t-172 -69.5q-44 0 -76.5 13t-60.5 45t-42.5 92t-14.5 147zM336 582q0 -92 27.5 -159t72.5 -99q47 136 47 260q0 75 -21 109t-52 34t-52.5 -35t-21.5 -110z" />
<glyph unicode="w" horiz-adv-x="995" d="M-6 324q0 123 14 231.5t28 159.5t23 63q13 17 40 29t46 12q23 0 32 -9t9 -32q-3 0 -13.5 -72.5t-21 -187.5t-10.5 -205q0 -211 62 -211q21 0 40 30.5t35.5 87.5t27.5 104.5t24.5 115.5t17.5 86q7 29 41.5 48.5t69.5 19.5q20 0 20 -31q0 -121 19 -228.5t55 -175t80 -67.5 q43 0 79.5 60.5t43.5 117.5q-80 34 -136.5 142.5t-56.5 228.5q0 72 30.5 125t86.5 53q76 0 117 -88.5t41 -220.5q0 -96 -21 -205h19q86 0 149 125l10 21l41 -31l-10 -21q-73 -143 -205 -143h-14q-31 -114 -87 -185t-128 -71q-49 0 -88 25t-62 60.5t-40 85t-24 87t-11 78.5 q-37 -154 -66 -216q-56 -120 -149 -120q-158 0 -158 324zM621 639q0 -96 40 -188.5t103 -126.5q6 48 6 125q0 117 -27.5 204.5t-70.5 87.5q-51 0 -51 -102z" />
<glyph unicode="x" horiz-adv-x="768" d="M-10 430l10 21q37 75 71.5 151.5t48 109t32 62t36.5 37.5t50 8q16 0 26.5 -4t22.5 -20t21 -37t23 -68t27.5 -98.5t36.5 -140.5q142 180 142 270q0 20 -6.5 37t-12.5 24l-6 6l20 31q4 0 10 -0.5t22 -4.5t28.5 -10.5t22.5 -21t10 -34.5q0 -56 -54 -142.5t-159 -216.5 q31 -114 57.5 -175t43.5 -76t40 -15q13 0 26 8.5t30 31t30.5 43.5t36.5 63.5t38 72.5l44 88l10 21l41 -31l-10 -21q-118 -233 -158 -292q-60 -91 -120 -104q-14 -3 -29 -3q-34 0 -56.5 8.5t-47.5 36.5t-48 85t-49 151l-43 -52q-133 -158 -133 -233q0 -49 22 -78l-14 -31 q-39 0 -71 16t-32 56q0 42 35.5 98.5t167.5 216.5l51 62q-30 112 -61 238q-18 71 -23.5 86.5t-15.5 15.5q-6 0 -13 -9.5t-18.5 -33t-23.5 -50t-34 -73t-44 -90.5l-10 -21z" />
<glyph unicode="y" horiz-adv-x="795" d="M-20 246q0 148 29.5 311t53.5 234q11 28 103 28q14 0 19 -7t5 -24q0 -8 -17 -97.5t-33.5 -213t-16.5 -211.5q0 -83 27.5 -128.5t68.5 -45.5q63 0 114 92t109 289v291q0 16 15 27.5t36.5 17t38.5 8t27 2.5q31 0 31 -31q0 -5 -5 -97t-5 -159v-407q49 64 111.5 154.5 t92.5 150.5l11 21l41 -31l-11 -21q-65 -129 -245 -352v-221q0 -175 -58.5 -256.5t-156.5 -81.5q-58 0 -96 36.5t-38 96.5q0 81 52 166t163 221v303q-114 -311 -274 -311q-35 0 -66 11.5t-61 37t-47.5 76.5t-17.5 121zM289 -373q0 -32 17.5 -55t47.5 -23q19 0 33 7t28.5 28.5 t22.5 69.5t8 121v151q-77 -96 -117 -167t-40 -132z" />
<glyph unicode="z" horiz-adv-x="717" d="M-10 430l30 62q21 42 31 61.5t34.5 61.5t41.5 63.5t45 53t54 47.5t60.5 28t71.5 12q99 0 157 -57t58 -146q0 -99 -88.5 -207t-201.5 -178q96 -57 157 -161q182 192 267 360l10 21l41 -31l-10 -21q-19 -37 -43.5 -76.5t-43.5 -67t-52 -68t-47.5 -57.5t-52 -59.5 t-44.5 -50.5q37 -92 37 -194q0 -175 -58 -256.5t-157 -81.5q-58 0 -95.5 36.5t-37.5 96.5q0 72 47 154t141 202q-24 89 -64 143.5t-75 69.5q-43 -16 -66 -16q-32 0 -49.5 14.5t-17.5 34.5q0 22 19 37.5t52 15.5q25 0 72 -14q96 50 161.5 148t65.5 194q0 64 -32 104t-91 40 q-23 0 -46.5 -10.5t-41 -23t-40 -40t-35 -45t-34 -56.5t-29.5 -54.5t-30 -57.5l-30 -62zM211 -373q0 -32 18 -55t47 -23q19 0 33 7t28.5 28.5t22 69.5t7.5 121q0 63 -11 135q-145 -185 -145 -283z" />
<glyph unicode="{" horiz-adv-x="768" d="M121 819v41q225 0 225 123q0 54 -41 248.5t-41 294.5q0 110 56.5 151t154.5 41q11 0 164 -12l-2 -41l-66 2q-174 5 -174 -162q0 -81 36 -255t36 -226q0 -69 -41 -116.5t-117 -67.5q158 -45 158 -185q0 -51 -36 -225t-36 -256q0 -167 174 -162l66 2l2 -41 q-114 -12 -170 -12q-98 0 -151.5 41t-53.5 152q0 100 41 294t41 248q0 123 -225 123z" />
<glyph unicode="|" horiz-adv-x="328" d="M123 -51v1782h82v-1782h-82z" />
<glyph unicode="}" horiz-adv-x="768" d="M127 -27l2 41l66 -2q174 -5 174 162q0 82 -36 256t-36 225q0 140 158 185q-76 20 -117 67.5t-41 116.5q0 52 36 226t36 255q0 167 -174 162l-66 -2l-2 41q153 12 162 12q47 0 82 -8t66.5 -27.5t48 -59t16.5 -97.5q0 -100 -41 -294.5t-41 -248.5q0 -123 225 -123v-41 q-225 0 -225 -123q0 -54 41 -248t41 -294q0 -111 -53.5 -152t-151.5 -41q-56 0 -170 12z" />
<glyph unicode="~" horiz-adv-x="758" d="M123 492q0 7 1.5 18t10.5 39t23 49.5t42.5 39t65.5 17.5q41 0 128 -30.5t128 -30.5q17 0 31 6.5t21.5 15t12 17.5t5.5 15l2 7h41q0 -7 -1.5 -18t-10.5 -39t-23 -49.5t-42.5 -39t-65.5 -17.5q-41 0 -129 30.5t-127 30.5q-28 0 -46 -15.5t-22 -30.5l-4 -15h-41z" />
<glyph unicode="&#xa1;" horiz-adv-x="430" d="M100 -211q0 79 41 524.5t43 526.5l52 -2q0 -99 2 -316t1.5 -387t-6.5 -332q-1 -20 -19 -35t-38 -21.5t-35 -6.5q-13 0 -19.5 1t-14 12.5t-7.5 35.5zM123 1085q0 39 27 66t65 27t65 -27t27 -66t-26.5 -65.5t-65.5 -26.5q-38 0 -65 27t-27 65z" />
<glyph unicode="&#xa2;" horiz-adv-x="922" d="M127 772q0 91 35.5 179t108.5 160.5t169 102.5v302h62v-287l61 6q94 0 145.5 -41.5t51.5 -99.5q0 -49 -35 -87.5t-69 -52.5l-35 -14l-25 45q5 4 12.5 11.5t20 32.5t12.5 52q0 36 -30 62t-76 26q-7 0 -17.5 -1t-15.5 -1v-624h20q45 0 90 12.5t77 29.5t58 34.5t39 30.5 l13 12l35 -39q-5 -6 -15.5 -17t-44 -39t-70 -51t-92 -44t-110.5 -26v-344h-62v342q-154 8 -233.5 100.5t-79.5 227.5zM262 838q0 -102 45 -180.5t133 -104.5v598q-84 -35 -131 -123t-47 -190z" />
<glyph unicode="&#xa3;" horiz-adv-x="1147" d="M127 358q0 60 46 104t136 44q79 0 164 -33q0 5 1 20t1 23q0 131 -55 268h-211v50h188q-9 19 -34.5 70t-36.5 76.5t-27 67.5t-22.5 80.5t-6.5 79.5q0 71 29 127.5t77 90.5t106.5 51.5t121.5 17.5q129 0 202 -69.5t73 -165.5q0 -74 -49.5 -130t-139.5 -81l-24 36 q55 32 86.5 85.5t31.5 123.5q0 71 -47 116.5t-131 45.5q-76 0 -130 -54.5t-54 -152.5q0 -64 12 -125.5t41.5 -158.5t38.5 -131h268v-50h-256q31 -122 31 -247q0 -47 -10 -99q10 -5 37 -18t39 -18.5t35 -15t38 -13.5t35 -7.5t39 -3.5q74 0 139 56.5t97 148.5l38 -12 q-11 -57 -36.5 -116t-62.5 -111t-89 -84.5t-108 -32.5q-29 0 -55 6.5t-54 23t-42 26t-47 36.5t-40 33q-36 -63 -94 -95t-119 -32q-71 0 -120.5 40t-49.5 109zM178 358q0 -45 34.5 -71.5t84.5 -26.5q48 0 90.5 29t65.5 90q-88 65 -172 65q-47 0 -75 -25t-28 -61z" />
<glyph unicode="&#xa4;" horiz-adv-x="1106" d="M123 399l143 144q-71 93 -71 215q0 117 71 215l-143 143l72 72l143 -144q92 72 215 72q116 0 213 -74l145 146l72 -72l-145 -145q73 -97 73 -213q0 -122 -71 -215l143 -144l-72 -71l-143 143q-98 -72 -215 -72q-121 0 -215 72l-143 -143zM276 758q0 -116 81 -196.5 t196 -80.5t195.5 80.5t80.5 196.5q0 115 -80.5 195.5t-195.5 80.5t-196 -80.5t-81 -195.5z" />
<glyph unicode="&#xa5;" horiz-adv-x="1055" d="M102 1333q97 68 174 68q68 0 123 -88t213 -428l25 -54q40 70 64.5 116t55 112t45.5 123t15 106q0 42 -13.5 74t-27.5 44l-14 11l22 47q152 0 152 -112q0 -95 -70.5 -246t-212.5 -391h193v-62h-228l-47 -82h275v-61h-309q-117 -212 -117 -305q0 -43 17 -77.5t38 -51.5 l-12 -49q-24 -4 -41 -4q-60 0 -93.5 25.5t-33.5 94.5q0 44 34.5 119.5t131.5 247.5h-178v61h213l47 82h-260v62h241q-11 25 -32.5 71t-30.5 68q-137 308 -177 380.5t-81 72.5q-13 0 -33 -4.5t-34 -8.5l-13 -4z" />
<glyph unicode="&#xa6;" horiz-adv-x="328" d="M123 -51v768h82v-768h-82zM123 963v768h82v-768h-82z" />
<glyph unicode="&#xa7;" horiz-adv-x="983" d="M123 891q0 114 59 205q-59 75 -59 174q0 115 62 209.5t165 147t223 52.5q142 0 214.5 -64t72.5 -153q0 -80 -49 -141.5t-100 -83.5l-23 29q20 27 34.5 74t14.5 94q0 184 -205 184q-129 0 -228 -74.5t-99 -193.5q0 -69 34.5 -126.5t89.5 -98t121.5 -77.5t133 -72.5 t121.5 -73.5t89.5 -90.5t34.5 -115.5q0 -104 -71 -184q71 -80 71 -195q0 -129 -111 -223t-269 -94q-87 0 -152 18.5t-99 49t-49.5 62t-15.5 63.5q0 52 25 95t63.5 69t75 41.5t70.5 21.5l8 -41q-29 -10 -64 -51.5t-35 -102.5q0 -80 53 -127t132 -47q62 0 121 22t102 73 t43 120q0 68 -33.5 123.5t-86.5 93.5t-117.5 72t-129 66.5t-117.5 68.5t-86.5 87.5t-33.5 113.5zM215 983q0 -65 32.5 -118t89.5 -92t116 -69.5t132.5 -69.5t119.5 -73q12 31 12 64q0 62 -34 112t-91.5 87t-119 68t-132.5 72t-115 83q-10 -35 -10 -64z" />
<glyph unicode="&#xa8;" horiz-adv-x="430" d="M0 1065q0 34 24 58t58 24q35 0 58.5 -24t23.5 -58q0 -35 -23.5 -58.5t-58.5 -23.5q-34 0 -58 23.5t-24 58.5zM266 1065q0 34 24 58t58 24q35 0 58.5 -24t23.5 -58q0 -35 -23.5 -58.5t-58.5 -23.5q-34 0 -58 23.5t-24 58.5z" />
<glyph unicode="&#xa9;" horiz-adv-x="1393" d="M123 573q0 117 45.5 223.5t122 183t182.5 122t223 45.5t223.5 -45.5t183 -122t122 -183t45.5 -223.5t-45.5 -223t-122 -182.5t-183 -122t-223.5 -45.5t-223 45.5t-182.5 122t-122 182.5t-45.5 223zM184 573q0 -103 41 -198t109.5 -163.5t163.5 -109.5t198 -41 q138 0 256 69t187 187t69 256t-69 256t-187 187t-256 69t-256 -69t-187 -187t-69 -256zM393 559q0 103 40 197t118.5 155.5t177.5 61.5q85 0 133.5 -42.5t48.5 -90.5q0 -45 -36.5 -87t-94.5 -57l-10 29q23 37 28 82t-17.5 80t-73.5 35q-75 0 -118.5 -82.5t-43.5 -216.5 q0 -82 21 -151.5t70.5 -117t119.5 -47.5q43 0 82 18t68 48.5t48 58t35 57.5l41 -28q-56 -115 -141 -190.5t-197 -75.5q-96 0 -165.5 53t-101.5 134t-32 177z" />
<glyph unicode="&#xaa;" horiz-adv-x="737" d="M82 1079q0 150 73.5 250.5t174.5 100.5q31 0 58 -10t43 -25t28 -29.5t17 -24.5l5 -10l6 47q3 26 31.5 39t50.5 13q25 0 25 -27q0 -6 -8.5 -68.5t-17.5 -156t-9 -174.5q0 -97 35 -97q12 0 35 21l26 -31q-5 -9 -13 -22t-34.5 -34.5t-52.5 -21.5q-47 0 -68 35t-26 109 q-20 -50 -71 -97t-114 -47q-81 0 -137.5 67t-56.5 193zM205 1135q0 -101 33 -157t88 -56q53 0 99 77t46 197q0 67 -36 119.5t-85 52.5q-62 0 -103.5 -65t-41.5 -168z" />
<glyph unicode="&#xab;" horiz-adv-x="1116" d="M123 461l614 461l41 -52l-461 -409l461 -410l-41 -51zM438 461l514 461l41 -52l-389 -409l389 -410l-41 -51z" />
<glyph unicode="&#xad;" horiz-adv-x="737" d="M123 532v82h491v-82h-491z" />
<glyph unicode="&#xae;" horiz-adv-x="922" d="M123 1157q0 140 99 239t239 99q139 0 238.5 -99.5t99.5 -238.5t-99.5 -238.5t-238.5 -99.5q-140 0 -239 99t-99 239zM184 1157q0 -113 81.5 -194.5t195.5 -81.5q113 0 194.5 81.5t81.5 194.5q0 114 -81.5 195.5t-194.5 81.5q-114 0 -195.5 -81.5t-81.5 -195.5zM334 958 v390h164q46 0 79 -33.5t33 -79.5q0 -36 -20 -65t-53 -42l84 -141l-52 -31l-98 166h-76v-164h-61zM395 1184h103q20 0 35.5 15.5t15.5 35.5t-15.5 35.5t-35.5 15.5h-103v-102z" />
<glyph unicode="&#xaf;" horiz-adv-x="510" d="M0 1083q0 27 66 27q55 0 163 -3t162 -3q68 0 101 2q8 0 14 -20t6 -39q0 -27 -66 -27q-55 0 -163 3t-162 3q-68 0 -101 -2q-9 0 -14.5 20t-5.5 39z" />
<glyph unicode="&#xb0;" horiz-adv-x="594" d="M123 1331q0 72 51 123t123 51t123 -51t51 -123t-51 -123t-123 -51t-123 51t-51 123zM184 1331q0 -46 33.5 -79t79.5 -33t79.5 33t33.5 79t-33.5 79.5t-79.5 33.5t-79.5 -33.5t-33.5 -79.5z" />
<glyph unicode="&#xb1;" horiz-adv-x="840" d="M113 163v82h604v-82h-604zM123 593v82h246v256h92v-256h246v-82h-246v-266h-92v266h-246z" />
<glyph unicode="&#xb2;" horiz-adv-x="584" d="M82 942q0 59 17 111t44 89t59 69.5t64.5 60.5t59 55t43 59.5t16.5 67.5q0 82 -94 82q-42 0 -71.5 -19.5t-29.5 -62.5q0 -63 56 -63v-39q-29 -19 -64 -19q-38 0 -64 22.5t-26 67.5q0 74 59 114t140 40q78 0 132 -38t54 -116q0 -42 -14.5 -74.5t-39.5 -54.5t-55 -40.5 t-63.5 -37t-63 -39t-55.5 -52t-39 -70.5q7 9 30.5 17.5t45.5 8.5q39 0 97 -18.5t88 -18.5q18 0 36 8t26 16l9 7l23 -22q-16 -28 -25.5 -43t-24.5 -33.5t-31 -26.5t-34 -8q-41 0 -106.5 32t-87.5 32q-18 0 -32 -8.5t-22 -21t-11 -20.5t-5 -14h-41z" />
<glyph unicode="&#xb3;" horiz-adv-x="584" d="M82 1092q0 33 18.5 61t44.5 43l33 -16q-16 -36 -16 -80q0 -65 34.5 -98t84.5 -33q108 0 108 139q0 67 -34 109.5t-109 42.5l-10 20q122 67 122 195q0 75 -67 75q-37 0 -63.5 -24t-26.5 -66q0 -15 5 -28.5t11.5 -22.5t13.5 -16t12 -10l5 -3l-8 -18q-49 11 -81 36.5 t-32 55.5q0 60 58 95.5t132 35.5q61 0 103.5 -27t42.5 -77q0 -25 -10.5 -50.5t-29.5 -48t-33.5 -38t-34.5 -32.5t-21 -18q67 -11 117.5 -57t50.5 -113q0 -66 -33.5 -111.5t-80 -64t-101.5 -18.5q-93 0 -149 44t-56 118z" />
<glyph unicode="&#xb4;" horiz-adv-x="297" d="M0 971l193 200l104 -102l-270 -141z" />
<glyph unicode="&#xb5;" d="M-39 -479q0 77 27 190q0 1011 24 1073q7 17 40.5 26t64.5 9q35 0 35 -35q0 -9 -4 -73.5t-8.5 -169.5t-4.5 -213q0 -107 27 -161t69 -54q52 0 104 71.5t77 190.5q6 59 12.5 150t11.5 157t8 88q5 24 40.5 36.5t60.5 12.5q30 0 30 -31q0 -24 -16 -258t-16 -284 q0 -75 8.5 -110.5t32.5 -35.5q18 0 38.5 20t48 66.5t51 91.5t63.5 124q9 19 14 28l10 21l41 -31l-10 -21q-14 -27 -39 -78q-39 -79 -57 -114.5t-47.5 -85t-49.5 -70t-47.5 -36t-56.5 -15.5q-74 0 -103.5 54.5t-29.5 162.5q-29 -88 -85 -152.5t-120 -64.5q-25 0 -49.5 11.5 t-32.5 23.5q-8 -296 -8 -492q0 -34 -40 -52.5t-73 -18.5q-41 0 -41 49z" />
<glyph unicode="&#xb6;" horiz-adv-x="1544" d="M0 1192q0 73 22.5 143.5t69 132.5t112.5 109t158.5 74.5t200.5 27.5q106 0 354.5 -21.5t269.5 -21.5q48 0 107 10t98 31l41 -30q-48 -65 -70 -165t-22 -296v-1043q0 -94 -2.5 -145t-12.5 -100.5t-28 -83t-51 -70.5q-92 -104 -273 -133l-10 53q104 41 163.5 137.5 t59.5 235.5v1010q0 53 1 89.5t4.5 83.5t9.5 82t17.5 76.5t27.5 76.5t40 73t54 74q-89 -56 -215 -56q-73 0 -284.5 20.5t-268.5 20.5q-72 0 -134.5 -25t-108 -67.5t-78.5 -98t-49.5 -118.5t-16.5 -127q0 -73 22.5 -138.5t66 -118.5t115 -84.5t162.5 -31.5t182.5 17.5 t133.5 32.5t74 29q1 85 6 144t19.5 127t46.5 129t81 119l51 76l41 -31q-48 -65 -70 -164.5t-22 -295.5v-756q0 -183 -16.5 -267t-77.5 -153q-38 -43 -94.5 -74.5t-134.5 -50t-168 -18.5q-115 0 -213 40.5t-157.5 116.5t-59.5 170q0 61 25 113.5t60.5 85t78.5 57.5t72.5 36 t49.5 15l21 -40q-164 -87 -164 -267q0 -128 82 -202t215 -74q76 0 133.5 20.5t102.5 66t68.5 125.5t23.5 193v706q-32 -14 -74 -28.5t-133.5 -31.5t-182.5 -17q-135 0 -242.5 39.5t-173.5 105.5t-101 148t-35 172z" />
<glyph unicode="&#xb7;" horiz-adv-x="430" d="M123 543q0 38 27 65t65 27t65 -27t27 -65t-27 -65t-65 -27t-65 27t-27 65z" />
<glyph unicode="&#xb8;" horiz-adv-x="256" d="M0 -250q77 27 115.5 52.5t38.5 41.5q0 37 -113 37v131h51v-37q81 0 122.5 -22.5t41.5 -61.5q0 -48 -64.5 -103t-177.5 -85z" />
<glyph unicode="&#xb9;" horiz-adv-x="328" d="M31 1368q58 48 87 95t52 114h74q4 -86 4 -191q0 -260 -12 -444h-93q7 200 7 283q0 112 -7 184q-34 -45 -92 -78z" />
<glyph unicode="&#xba;" horiz-adv-x="666" d="M82 1116q0 61 17.5 115t43 89t54.5 61t52 37.5t36 11.5l8 -25q-4 -2 -9.5 -6t-21 -25t-27 -49.5t-21 -84t-9.5 -124.5q0 -106 32 -176t91 -70q57 0 100 82.5t43 225.5q0 78 -27 126t-65 48q-54 0 -80 -125l-43 12q31 174 133 174q83 0 139 -74.5t56 -191.5 q0 -131 -68 -229.5t-178 -98.5q-113 0 -184.5 85.5t-71.5 211.5z" />
<glyph unicode="&#xbb;" horiz-adv-x="1116" d="M123 51l389 410l-389 409l41 52l514 -461l-514 -461zM338 51l461 410l-461 409l41 52l614 -461l-614 -461z" />
<glyph unicode="&#xbc;" horiz-adv-x="717" d="M123 727v51h471v-51h-471zM133 233q215 189 215 402h103q0 -36 -13.5 -76.5t-30.5 -72t-47.5 -71t-50 -61t-52 -56.5t-40.5 -44h12q43 0 104 -32.5t79 -37.5q2 66 2 215l92 19q0 -144 -4 -236q18 3 41 13l10 -31q-26 -22 -53 -25q0 -31 -3 -79.5t-3 -59.5h-93q6 64 9 139 q-19 5 -81 39.5t-108 34.5q-23 0 -43 -9t-28 -18zM215 1286q58 48 87 95t52 114h74q4 -86 4 -191q0 -260 -12 -444h-93q7 200 7 283q0 112 -7 184q-34 -45 -92 -78z" />
<glyph unicode="&#xbd;" horiz-adv-x="717" d="M123 727v51h471v-51h-471zM168 0q0 59 17 111t44 89t59 69.5t64.5 60.5t59 55t43 59.5t16.5 67.5q0 82 -94 82q-42 0 -71.5 -19.5t-29.5 -62.5q0 -63 56 -63v-39q-29 -19 -64 -19q-38 0 -64 22.5t-26 67.5q0 74 59 114t140 40q78 0 132 -38t54 -116q0 -42 -14.5 -74.5 t-39.5 -54.5t-55 -40.5t-63.5 -37t-63 -39t-55.5 -52t-39 -70.5q7 9 30.5 17.5t45.5 8.5q39 0 97 -18.5t88 -18.5q18 0 36 8t26 16l9 7l23 -22q-16 -28 -25.5 -43t-24.5 -33.5t-31 -26.5t-34 -8q-41 0 -106.5 32t-87.5 32q-18 0 -32 -8.5t-22 -21t-11 -20.5t-5 -14h-41z M209 1286q58 48 87 95t52 114h74q4 -86 4 -191q0 -260 -12 -444h-93q7 200 7 283q0 112 -7 184q-34 -45 -92 -78z" />
<glyph unicode="&#xbe;" horiz-adv-x="717" d="M123 727v51h471v-51h-471zM133 233q215 189 215 402h103q0 -36 -13.5 -76.5t-30.5 -72t-47.5 -71t-50 -61t-52 -56.5t-40.5 -44h12q43 0 104 -32.5t79 -37.5q2 66 2 215l92 19q0 -144 -4 -236q18 3 41 13l10 -31q-26 -22 -53 -25q0 -31 -3 -79.5t-3 -59.5h-93q6 64 9 139 q-19 5 -81 39.5t-108 34.5q-23 0 -43 -9t-28 -18zM143 1000q0 33 18.5 61t44.5 43l33 -16q-16 -36 -16 -80q0 -65 34.5 -98t84.5 -33q108 0 108 139q0 67 -34 109.5t-109 42.5l-10 20q122 67 122 195q0 75 -67 75q-37 0 -63.5 -24t-26.5 -66q0 -24 12 -44t24 -28l11 -8 l-8 -18q-49 11 -81 36.5t-32 55.5q0 60 58 95.5t132 35.5q61 0 103.5 -27t42.5 -77q0 -25 -10.5 -50.5t-29.5 -48t-33.5 -38t-34.5 -32.5t-21 -18q67 -11 117.5 -57t50.5 -113q0 -66 -33.5 -111.5t-80 -64t-101.5 -18.5q-93 0 -149 44t-56 118z" />
<glyph unicode="&#xbf;" horiz-adv-x="891" d="M123 154q0 50 31.5 100t76.5 98t89.5 104t76 140.5t31.5 185.5v21h45q6 -49 6 -78q0 -92 -14.5 -169t-38 -129.5t-51.5 -95.5t-56 -74.5t-51.5 -59.5t-38 -58t-14.5 -61q0 -83 68.5 -137t156.5 -54q84 0 144.5 56t60.5 161q0 29 -5.5 56t-14 47.5t-19 38.5t-20.5 30 t-18.5 20.5t-13.5 12.5l-5 4l24 41q3 0 21 -6t48.5 -24t58 -44t47.5 -72.5t20 -103.5q0 -78 -49 -137.5t-120.5 -88t-149.5 -28.5q-136 0 -231 81t-95 223zM352 1085q0 39 27 66t65 27q39 0 66 -27t27 -66q0 -38 -27 -65t-66 -27q-38 0 -65 27t-27 65z" />
<glyph unicode="&#xc0;" horiz-adv-x="1352" d="M-31 276q0 177 53.5 358t142 332.5t203.5 285.5t237 227t244 146.5t222 53.5q84 0 134 -43t50 -120q0 -73 -43.5 -149t-108.5 -135t-126 -101t-111 -66l-30 41q41 20 90.5 61.5t97 96.5t79.5 123t32 131q0 45 -24 72.5t-71 27.5q-78 0 -174.5 -54t-193.5 -146 t-190 -221.5t-164 -271.5t-114.5 -304.5t-43.5 -313.5q0 -246 153 -246q62 0 126.5 35t119.5 91.5t107.5 132.5t94 154t75.5 161q15 149 34 265.5t31 133.5q8 14 47 32.5t62 18.5q30 0 30 -30q0 -57 -15 -143t-38 -154q-18 -259 -18 -400q0 -115 9 -171t24 -70.5t45 -14.5 q38 0 83.5 35t84.5 87t64.5 93t41.5 72l31 62l41 -31l-31 -62q-15 -30 -34 -63t-59.5 -92t-81 -102.5t-95 -77t-105.5 -33.5q-58 0 -94 25.5t-57 96.5t-21 195q0 56 6 152q-72 -138 -162.5 -250t-203 -186t-219.5 -74q-114 0 -190.5 82.5t-76.5 244.5zM536 1976l133 62 l113 -256l-41 -31z" />
<glyph unicode="&#xc1;" horiz-adv-x="1352" d="M-31 276q0 177 53.5 358t142 332.5t203.5 285.5t237 227t244 146.5t222 53.5q84 0 134 -43t50 -120q0 -73 -43.5 -149t-108.5 -135t-126 -101t-111 -66l-30 41q41 20 90.5 61.5t97 96.5t79.5 123t32 131q0 45 -24 72.5t-71 27.5q-78 0 -174.5 -54t-193.5 -146 t-190 -221.5t-164 -271.5t-114.5 -304.5t-43.5 -313.5q0 -246 153 -246q62 0 126.5 35t119.5 91.5t107.5 132.5t94 154t75.5 161q15 149 34 265.5t31 133.5q8 14 47 32.5t62 18.5q30 0 30 -30q0 -57 -15 -143t-38 -154q-18 -259 -18 -400q0 -115 9 -171t24 -70.5t45 -14.5 q38 0 83.5 35t84.5 87t64.5 93t41.5 72l31 62l41 -31l-31 -62q-15 -30 -34 -63t-59.5 -92t-81 -102.5t-95 -77t-105.5 -33.5q-58 0 -94 25.5t-57 96.5t-21 195q0 56 6 152q-72 -138 -162.5 -250t-203 -186t-219.5 -74q-114 0 -190.5 82.5t-76.5 244.5zM778 1831l193 200 l104 -102l-270 -141z" />
<glyph unicode="&#xc2;" horiz-adv-x="1352" d="M-31 276q0 177 53.5 358t142 332.5t203.5 285.5t237 227t244 146.5t222 53.5q84 0 134 -43t50 -120q0 -73 -43.5 -149t-108.5 -135t-126 -101t-111 -66l-30 41q41 20 90.5 61.5t97 96.5t79.5 123t32 131q0 45 -24 72.5t-71 27.5q-78 0 -174.5 -54t-193.5 -146 t-190 -221.5t-164 -271.5t-114.5 -304.5t-43.5 -313.5q0 -246 153 -246q62 0 126.5 35t119.5 91.5t107.5 132.5t94 154t75.5 161q15 149 34 265.5t31 133.5q8 14 47 32.5t62 18.5q30 0 30 -30q0 -57 -15 -143t-38 -154q-18 -259 -18 -400q0 -115 9 -171t24 -70.5t45 -14.5 q38 0 83.5 35t84.5 87t64.5 93t41.5 72l31 62l41 -31l-31 -62q-15 -30 -34 -63t-59.5 -92t-81 -102.5t-95 -77t-105.5 -33.5q-58 0 -94 25.5t-57 96.5t-21 195q0 56 6 152q-72 -138 -162.5 -250t-203 -186t-219.5 -74q-114 0 -190.5 82.5t-76.5 244.5zM682 1843l266 195 l266 -195l-30 -41l-236 123l-235 -123z" />
<glyph unicode="&#xc3;" horiz-adv-x="1352" d="M-31 276q0 177 53.5 358t142 332.5t203.5 285.5t237 227t244 146.5t222 53.5q84 0 134 -43t50 -120q0 -73 -43.5 -149t-108.5 -135t-126 -101t-111 -66l-30 41q41 20 90.5 61.5t97 96.5t79.5 123t32 131q0 45 -24 72.5t-71 27.5q-78 0 -174.5 -54t-193.5 -146 t-190 -221.5t-164 -271.5t-114.5 -304.5t-43.5 -313.5q0 -246 153 -246q62 0 126.5 35t119.5 91.5t107.5 132.5t94 154t75.5 161q15 149 34 265.5t31 133.5q8 14 47 32.5t62 18.5q30 0 30 -30q0 -57 -15 -143t-38 -154q-18 -259 -18 -400q0 -115 9 -171t24 -70.5t45 -14.5 q38 0 83.5 35t84.5 87t64.5 93t41.5 72l31 62l41 -31l-31 -62q-15 -30 -34 -63t-59.5 -92t-81 -102.5t-95 -77t-105.5 -33.5q-58 0 -94 25.5t-57 96.5t-21 195q0 56 6 152q-72 -138 -162.5 -250t-203 -186t-219.5 -74q-114 0 -190.5 82.5t-76.5 244.5zM657 1843q0 7 1.5 18 t10.5 39t23 50t42.5 39.5t65.5 17.5q41 0 128 -31t128 -31q28 0 46 15.5t22 31.5l4 15h41q0 -7 -1.5 -18t-10.5 -39t-23 -50t-42.5 -39.5t-65.5 -17.5q-41 0 -128.5 30.5t-127.5 30.5q-17 0 -31 -6.5t-21.5 -15t-12 -17.5t-5.5 -15l-2 -7h-41z" />
<glyph unicode="&#xc4;" horiz-adv-x="1352" d="M-31 276q0 177 53.5 358t142 332.5t203.5 285.5t237 227t244 146.5t222 53.5q84 0 134 -43t50 -120q0 -73 -43.5 -149t-108.5 -135t-126 -101t-111 -66l-30 41q41 20 90.5 61.5t97 96.5t79.5 123t32 131q0 45 -24 72.5t-71 27.5q-78 0 -174.5 -54t-193.5 -146 t-190 -221.5t-164 -271.5t-114.5 -304.5t-43.5 -313.5q0 -246 153 -246q62 0 126.5 35t119.5 91.5t107.5 132.5t94 154t75.5 161q15 149 34 265.5t31 133.5q8 14 47 32.5t62 18.5q30 0 30 -30q0 -57 -15 -143t-38 -154q-18 -259 -18 -400q0 -115 9 -171t24 -70.5t45 -14.5 q38 0 83.5 35t84.5 87t64.5 93t41.5 72l31 62l41 -31l-31 -62q-15 -30 -34 -63t-59.5 -92t-81 -102.5t-95 -77t-105.5 -33.5q-58 0 -94 25.5t-57 96.5t-21 195q0 56 6 152q-72 -138 -162.5 -250t-203 -186t-219.5 -74q-114 0 -190.5 82.5t-76.5 244.5zM749 1925q0 34 24 58 t58 24q35 0 58.5 -24t23.5 -58q0 -35 -23.5 -58.5t-58.5 -23.5q-34 0 -58 23.5t-24 58.5zM1015 1925q0 34 24 58t58 24q35 0 58.5 -24t23.5 -58q0 -35 -23.5 -58.5t-58.5 -23.5q-34 0 -58 23.5t-24 58.5z" />
<glyph unicode="&#xc5;" horiz-adv-x="1352" d="M-31 276q0 177 53.5 358t142 332.5t203.5 285.5t237 227t244 146.5t222 53.5q84 0 134 -43t50 -120q0 -73 -43.5 -149t-108.5 -135t-126 -101t-111 -66l-30 41q41 20 90.5 61.5t97 96.5t79.5 123t32 131q0 45 -24 72.5t-71 27.5q-78 0 -174.5 -54t-193.5 -146 t-190 -221.5t-164 -271.5t-114.5 -304.5t-43.5 -313.5q0 -246 153 -246q62 0 126.5 35t119.5 91.5t107.5 132.5t94 154t75.5 161q15 149 34 265.5t31 133.5q8 14 47 32.5t62 18.5q30 0 30 -30q0 -57 -15 -143t-38 -154q-18 -259 -18 -400q0 -115 9 -171t24 -70.5t45 -14.5 q38 0 83.5 35t84.5 87t64.5 93t41.5 72l31 62l41 -31l-31 -62q-15 -30 -34 -63t-59.5 -92t-81 -102.5t-95 -77t-105.5 -33.5q-58 0 -94 25.5t-57 96.5t-21 195q0 56 6 152q-72 -138 -162.5 -250t-203 -186t-219.5 -74q-114 0 -190.5 82.5t-76.5 244.5zM768 1943 q0 68 48.5 117t115.5 49t115.5 -49t48.5 -117q0 -66 -48.5 -113.5t-115.5 -47.5t-115.5 47.5t-48.5 113.5zM829 1945q0 -41 31 -71.5t72 -30.5t71.5 30.5t30.5 71.5q0 42 -30.5 72.5t-71.5 30.5t-72 -30.5t-31 -72.5z" />
<glyph unicode="&#xc6;" horiz-adv-x="1997" d="M41 498q0 125 22.5 261t63 267t102.5 249.5t136 208t168 142.5t194 53q132 0 221 -106q118 104 303 104q137 0 236.5 -63.5t99.5 -169.5q0 -76 -48 -121t-118 -45q-51 0 -94 22l19 41q43 -20 79 -20q49 0 80 33t31 90q0 78 -72.5 129t-169.5 51q-57 0 -108.5 -19.5 t-96 -58.5t-70.5 -107.5t-26 -156.5q0 -108 49 -194.5t138 -114.5q81 20 131 20q63 0 63 -39q0 -43 -74 -43q-65 0 -110 9q-142 -40 -221.5 -176.5t-79.5 -301.5q0 -117 39.5 -215t125.5 -162.5t206 -64.5q185 0 303 131q-109 28 -201 123t-92 217q0 116 75 196.5t187 80.5 q111 0 189.5 -78t78.5 -213q0 -70 -27.5 -146.5t-70.5 -134.5q57 7 103.5 32t81 65.5t55.5 74t45 82.5l10 21l41 -31l-10 -21q-135 -273 -373 -276q-81 -81 -190 -127.5t-236 -46.5q-176 0 -306 86.5t-184 228.5q-161 -282 -372 -282q-110 0 -185 70t-108 183t-33 263z M236 532q0 -188 48.5 -304.5t143.5 -116.5q73 0 150.5 63t136.5 168q-8 44 -8 98q0 365 387 506q-124 47 -194.5 141.5t-70.5 202.5q0 149 86 248q-72 82 -188 82q-89 0 -168.5 -70t-137 -184.5t-100.5 -257.5t-64 -291.5t-21 -284.5zM1331 471q0 -111 85 -194t183 -101 q31 52 50.5 124t19.5 140q0 117 -50 178.5t-122 61.5q-70 0 -118 -58.5t-48 -150.5z" />
<glyph unicode="&#xc7;" horiz-adv-x="1116" d="M-11 709q0 195 40.5 359.5t106.5 274.5t151 188t172 113t171 35q180 0 294 -117.5t114 -310.5q0 -183 -103.5 -317.5t-238.5 -134.5q-91 0 -153 62t-62 163q0 91 49 172.5t108 120.5l27 -27q-102 -121 -102 -256q0 -83 38.5 -133.5t94.5 -50.5q81 0 143 114t62 306 q0 177 -74 267.5t-193 90.5q-36 0 -76.5 -12t-88 -42t-91.5 -74.5t-85.5 -114.5t-72 -157t-49 -207.5t-18.5 -260.5q0 -173 40.5 -312.5t109 -225.5t153.5 -131.5t178 -45.5q133 0 254.5 97.5t216.5 287.5l11 21l41 -31l-11 -21q-103 -207 -245 -322t-302 -127v-43 q109 0 165.5 -30.5t56.5 -82.5q0 -66 -87.5 -139.5t-239.5 -114.5l-19 63q104 37 156 71t52 56q0 23 -41 36.5t-112 13.5v171q-106 7 -201.5 57.5t-172 141.5t-122 235.5t-45.5 323.5z" />
<glyph unicode="&#xc8;" horiz-adv-x="1269" d="M-21 440q0 365 387 506q-124 47 -194 141.5t-70 202.5q0 90 38.5 165.5t101.5 123.5t141 74t159 26q138 0 232 -61q53 10 106 10v-41q-25 0 -61 -4q61 -58 61 -139q0 -76 -47 -125t-117 -49q-72 0 -115.5 43t-43.5 104q0 55 36 104.5t109 77.5q-70 29 -150 29 q-137 0 -211.5 -92.5t-74.5 -253.5q0 -108 48.5 -194.5t137.5 -114.5q81 20 131 20q64 0 64 -39q0 -43 -74 -43q-66 0 -111 9q-136 -36 -217.5 -161t-81.5 -319q0 -110 31 -196t83.5 -138t117.5 -79t137 -27q185 0 303 131q-130 25 -211.5 117.5t-81.5 222.5q0 128 84 212.5 t199 84.5q111 0 189.5 -78t78.5 -213q0 -72 -31 -151.5t-88 -149.5q57 7 103.5 32t81 65.5t55.5 74.5t45 82l10 21l41 -31l-10 -21q-135 -273 -373 -276q-80 -81 -189.5 -127.5t-236.5 -46.5q-114 0 -212.5 39t-165.5 105.5t-105.5 156.5t-38.5 190zM481 1976l133 62 l113 -256l-41 -31zM604 471q0 -119 74 -199t194 -96q90 130 90 285q0 117 -50 178t-122 61q-74 0 -130 -63t-56 -166zM608 1419q0 -41 29.5 -69.5t78.5 -28.5q53 0 83 34t30 89q0 77 -74 127q-73 -20 -110 -63t-37 -89z" />
<glyph unicode="&#xc9;" horiz-adv-x="1269" d="M-21 440q0 365 387 506q-124 47 -194 141.5t-70 202.5q0 90 38.5 165.5t101.5 123.5t141 74t159 26q138 0 232 -61q53 10 106 10v-41q-25 0 -61 -4q61 -58 61 -139q0 -76 -47 -125t-117 -49q-72 0 -115.5 43t-43.5 104q0 55 36 104.5t109 77.5q-70 29 -150 29 q-137 0 -211.5 -92.5t-74.5 -253.5q0 -108 48.5 -194.5t137.5 -114.5q81 20 131 20q64 0 64 -39q0 -43 -74 -43q-66 0 -111 9q-136 -36 -217.5 -161t-81.5 -319q0 -110 31 -196t83.5 -138t117.5 -79t137 -27q185 0 303 131q-130 25 -211.5 117.5t-81.5 222.5q0 128 84 212.5 t199 84.5q111 0 189.5 -78t78.5 -213q0 -72 -31 -151.5t-88 -149.5q57 7 103.5 32t81 65.5t55.5 74.5t45 82l10 21l41 -31l-10 -21q-135 -273 -373 -276q-80 -81 -189.5 -127.5t-236.5 -46.5q-114 0 -212.5 39t-165.5 105.5t-105.5 156.5t-38.5 190zM475 1831l193 200 l104 -102l-270 -141zM604 471q0 -119 74 -199t194 -96q90 130 90 285q0 117 -50 178t-122 61q-74 0 -130 -63t-56 -166zM608 1419q0 -41 29.5 -69.5t78.5 -28.5q53 0 83 34t30 89q0 77 -74 127q-73 -20 -110 -63t-37 -89z" />
<glyph unicode="&#xca;" horiz-adv-x="1269" d="M-21 440q0 365 387 506q-124 47 -194 141.5t-70 202.5q0 90 38.5 165.5t101.5 123.5t141 74t159 26q138 0 232 -61q53 10 106 10v-41q-25 0 -61 -4q61 -58 61 -139q0 -76 -47 -125t-117 -49q-72 0 -115.5 43t-43.5 104q0 55 36 104.5t109 77.5q-70 29 -150 29 q-137 0 -211.5 -92.5t-74.5 -253.5q0 -108 48.5 -194.5t137.5 -114.5q81 20 131 20q64 0 64 -39q0 -43 -74 -43q-66 0 -111 9q-136 -36 -217.5 -161t-81.5 -319q0 -110 31 -196t83.5 -138t117.5 -79t137 -27q185 0 303 131q-130 25 -211.5 117.5t-81.5 222.5q0 128 84 212.5 t199 84.5q111 0 189.5 -78t78.5 -213q0 -72 -31 -151.5t-88 -149.5q57 7 103.5 32t81 65.5t55.5 74.5t45 82l10 21l41 -31l-10 -21q-135 -273 -373 -276q-80 -81 -189.5 -127.5t-236.5 -46.5q-114 0 -212.5 39t-165.5 105.5t-105.5 156.5t-38.5 190zM264 1800l266 195 l266 -195l-30 -41l-236 123l-235 -123zM604 471q0 -119 74 -199t194 -96q90 130 90 285q0 117 -50 178t-122 61q-74 0 -130 -63t-56 -166zM608 1419q0 -41 29.5 -69.5t78.5 -28.5q53 0 83 34t30 89q0 77 -74 127q-73 -20 -110 -63t-37 -89z" />
<glyph unicode="&#xcb;" horiz-adv-x="1269" d="M-21 440q0 365 387 506q-124 47 -194 141.5t-70 202.5q0 90 38.5 165.5t101.5 123.5t141 74t159 26q138 0 232 -61q53 10 106 10v-41q-25 0 -61 -4q61 -58 61 -139q0 -76 -47 -125t-117 -49q-72 0 -115.5 43t-43.5 104q0 55 36 104.5t109 77.5q-70 29 -150 29 q-137 0 -211.5 -92.5t-74.5 -253.5q0 -108 48.5 -194.5t137.5 -114.5q81 20 131 20q64 0 64 -39q0 -43 -74 -43q-66 0 -111 9q-136 -36 -217.5 -161t-81.5 -319q0 -110 31 -196t83.5 -138t117.5 -79t137 -27q185 0 303 131q-130 25 -211.5 117.5t-81.5 222.5q0 128 84 212.5 t199 84.5q111 0 189.5 -78t78.5 -213q0 -72 -31 -151.5t-88 -149.5q57 7 103.5 32t81 65.5t55.5 74.5t45 82l10 21l41 -31l-10 -21q-135 -273 -373 -276q-80 -81 -189.5 -127.5t-236.5 -46.5q-114 0 -212.5 39t-165.5 105.5t-105.5 156.5t-38.5 190zM311 1925q0 34 24 58 t58 24q35 0 58.5 -24t23.5 -58q0 -35 -23.5 -58.5t-58.5 -23.5q-34 0 -58 23.5t-24 58.5zM577 1925q0 34 24 58t58 24q35 0 58.5 -24t23.5 -58q0 -35 -23.5 -58.5t-58.5 -23.5q-34 0 -58 23.5t-24 58.5zM604 471q0 -119 74 -199t194 -96q90 130 90 285q0 117 -50 178 t-122 61q-74 0 -130 -63t-56 -166zM608 1419q0 -41 29.5 -69.5t78.5 -28.5q53 0 83 34t30 89q0 77 -74 127q-73 -20 -110 -63t-37 -89z" />
<glyph unicode="&#xcc;" horiz-adv-x="1004" d="M-91 276q0 61 25.5 113.5t60.5 85t78.5 58t72.5 36.5t50 15l20 -41q-164 -89 -164 -267q0 -128 82 -202t215 -74q76 0 134 20.5t102.5 66t68 126t23.5 193.5q0 31 -16 231q-85 -33 -189 -33q-132 0 -224.5 81t-92.5 226q0 60 19 115t57 114t123 148t187 185.5t279 257.5 l41 -31q-47 -64 -69.5 -154.5t-22.5 -245.5q0 -162 29 -489q34 46 63 121l41 -21q-43 -103 -98 -168q4 -36 10 -91t9 -83.5t5.5 -67t2.5 -71.5q0 -115 -21 -197.5t-74 -140.5q-57 -65 -160 -104t-237 -39q-176 0 -303 92.5t-127 234.5zM278 932q0 -277 245 -277q71 0 134 29 q-41 397 -41 494q0 92 17.5 198t43.5 150q-105 -101 -163.5 -160.5t-111 -121t-75.5 -107.5t-36 -96t-13 -109zM315 1976l133 62l113 -256l-41 -31z" />
<glyph unicode="&#xcd;" horiz-adv-x="1004" d="M-91 276q0 61 25.5 113.5t60.5 85t78.5 58t72.5 36.5t50 15l20 -41q-164 -89 -164 -267q0 -128 82 -202t215 -74q76 0 134 20.5t102.5 66t68 126t23.5 193.5q0 31 -16 231q-85 -33 -189 -33q-132 0 -224.5 81t-92.5 226q0 60 19 115t57 114t123 148t187 185.5t279 257.5 l41 -31q-47 -64 -69.5 -154.5t-22.5 -245.5q0 -162 29 -489q34 46 63 121l41 -21q-43 -103 -98 -168q4 -36 10 -91t9 -83.5t5.5 -67t2.5 -71.5q0 -115 -21 -197.5t-74 -140.5q-57 -65 -160 -104t-237 -39q-176 0 -303 92.5t-127 234.5zM278 932q0 -277 245 -277q71 0 134 29 q-41 397 -41 494q0 92 17.5 198t43.5 150q-105 -101 -163.5 -160.5t-111 -121t-75.5 -107.5t-36 -96t-13 -109zM474 1831l193 200l104 -102l-270 -141z" />
<glyph unicode="&#xce;" horiz-adv-x="1010" d="M-91 276q0 61 25.5 113.5t60.5 85t78.5 58t72.5 36.5t50 15l20 -41q-164 -89 -164 -267q0 -128 82 -202t215 -74q76 0 134 20.5t102.5 66t68 126t23.5 193.5q0 31 -16 231q-85 -33 -189 -33q-132 0 -224.5 81t-92.5 226q0 60 19 115t57 114t123 148t187 185.5t279 257.5 l41 -31q-47 -64 -69.5 -154.5t-22.5 -245.5q0 -162 29 -489q34 46 63 121l41 -21q-43 -103 -98 -168q4 -36 10 -91t9 -83.5t5.5 -67t2.5 -71.5q0 -115 -21 -197.5t-74 -140.5q-57 -65 -160 -104t-237 -39q-176 0 -303 92.5t-127 234.5zM278 932q0 -277 245 -277q71 0 134 29 q-41 397 -41 494q0 92 17.5 198t43.5 150q-105 -101 -163.5 -160.5t-111 -121t-75.5 -107.5t-36 -96t-13 -109zM376 1843l266 195l266 -195l-30 -41l-236 123l-235 -123z" />
<glyph unicode="&#xcf;" horiz-adv-x="1021" d="M-91 276q0 61 25.5 113.5t60.5 85t78.5 58t72.5 36.5t50 15l20 -41q-164 -89 -164 -267q0 -128 82 -202t215 -74q76 0 134 20.5t102.5 66t68 126t23.5 193.5q0 31 -16 231q-85 -33 -189 -33q-132 0 -224.5 81t-92.5 226q0 60 19 115t57 114t123 148t187 185.5t279 257.5 l41 -31q-47 -64 -69.5 -154.5t-22.5 -245.5q0 -162 29 -489q34 46 63 121l41 -21q-43 -103 -98 -168q4 -36 10 -91t9 -83.5t5.5 -67t2.5 -71.5q0 -115 -21 -197.5t-74 -140.5q-57 -65 -160 -104t-237 -39q-176 0 -303 92.5t-127 234.5zM278 932q0 -277 245 -277q71 0 134 29 q-41 397 -41 494q0 92 17.5 198t43.5 150q-105 -101 -163.5 -160.5t-111 -121t-75.5 -107.5t-36 -96t-13 -109zM489 1925q0 34 24 58t58 24q35 0 58.5 -24t23.5 -58q0 -35 -23.5 -58.5t-58.5 -23.5q-34 0 -58 23.5t-24 58.5zM755 1925q0 34 24 58t58 24q35 0 58.5 -24 t23.5 -58q0 -35 -23.5 -58.5t-58.5 -23.5q-34 0 -58 23.5t-24 58.5z" />
<glyph unicode="&#xd0;" horiz-adv-x="1554" d="M-220 20q0 57 66 85t221 28q100 0 245 -22l27 28q36 44 45.5 137.5t9.5 327.5h-163v82h163q0 129 1 200t9.5 142t17 103.5t34 77.5t49.5 72.5t74 80.5l51 -45q-41 -39 -51.5 -111t-10.5 -225v-295h154v-82h-154v-186q0 -62 -13 -112.5t-39 -89t-51.5 -65t-63.5 -57.5 q36 -7 111.5 -23t115.5 -24t94.5 -15t95.5 -7q95 0 170.5 51.5t122.5 135.5t77.5 200.5t43 236t12.5 252.5q0 334 -168.5 520.5t-486.5 186.5q-133 0 -235 -26.5t-160.5 -66t-95 -92.5t-48.5 -98.5t-12 -91.5q0 -45 7 -79t25 -66.5t56.5 -50t95.5 -17.5q23 0 41 4.5t25 9.5 l6 4l12 -59q-39 -27 -127 -27q-118 0 -200 78t-82 187q0 123 84 228.5t237 169.5t340 64q194 0 357.5 -63.5t276 -176t175 -269.5t62.5 -341q0 -177 -51.5 -337.5t-142.5 -280.5t-224.5 -191t-288.5 -71q-66 0 -152 11.5t-132.5 20.5t-151.5 31q-150 -84 -301 -84 q-205 0 -205 92zM-159 20q0 -40 144 -40q118 0 217 51q-165 30 -258 30q-103 0 -103 -41z" />
<glyph unicode="&#xd1;" horiz-adv-x="1483" d="M-71 256q0 168 159 344l39 -20q-98 -148 -98 -279q0 -90 52 -146.5t126 -56.5q49 0 95.5 28.5t87.5 86t65.5 159t24.5 232.5q0 160 -37 293q-363 516 -363 680q0 51 24 76.5t58 25.5q62 0 123 -80t109 -203t88 -282q344 -445 667 -811q-127 555 -127 887q0 233 84 361 t213 128q88 0 136.5 -56t48.5 -138q0 -59 -16.5 -120t-33.5 -93l-16 -31l-39 25q43 86 43 198q0 61 -28 97t-74 36q-58 0 -101 -40t-68 -113.5t-36.5 -166t-11.5 -208.5q0 -199 32 -431.5t82 -432.5l144 -154l-121 -114q-140 134 -346 366.5t-394 484.5q17 -98 17 -260 q0 -107 -21.5 -196.5t-57.5 -149.5t-83.5 -102t-98 -61t-102.5 -19q-103 0 -174 69.5t-71 186.5zM142 1608q0 -42 249 -373q-53 167 -116.5 280t-112.5 113q-20 0 -20 -20zM498 1843q0 7 1.5 18t10.5 39t23 50t42.5 39.5t65.5 17.5q41 0 128 -31t128 -31q28 0 46 15.5 t22 31.5l4 15h41q0 -7 -1.5 -18t-10.5 -39t-23 -50t-42.5 -39.5t-65.5 -17.5q-41 0 -128.5 30.5t-127.5 30.5q-17 0 -31 -6.5t-21.5 -15t-12 -17.5t-6.5 -15l-1 -7h-41z" />
<glyph unicode="&#xd2;" horiz-adv-x="1432" d="M-11 809q0 129 29.5 247.5t73.5 204.5t103.5 161t110.5 121t104 81l43 -29q-139 -112 -220 -323t-81 -463q0 -167 28 -303.5t75 -229t111.5 -156t136.5 -92t151 -28.5q106 0 193.5 47t154 142t103.5 253t37 367q0 393 -113 600t-287 207q-92 0 -162 -62.5t-109.5 -165.5 t-59 -220t-19.5 -242q0 -111 10 -195.5t20 -113.5l11 -29l-59 -15q-109 127 -109 394q0 91 18.5 186.5t59.5 190.5t99.5 169t145.5 120t189 46q132 0 236 -66.5t168 -179.5t97.5 -254.5t33.5 -299.5q0 -138 -26 -271t-80 -252.5t-130.5 -210t-185.5 -143.5t-236 -53 q-149 0 -275.5 69.5t-211 187.5t-131.5 274t-47 329zM466 1976l133 62l113 -256l-41 -31z" />
<glyph unicode="&#xd3;" horiz-adv-x="1432" d="M-11 809q0 129 29.5 247.5t73.5 204.5t103.5 161t110.5 121t104 81l43 -29q-139 -112 -220 -323t-81 -463q0 -167 28 -303.5t75 -229t111.5 -156t136.5 -92t151 -28.5q106 0 193.5 47t154 142t103.5 253t37 367q0 393 -113 600t-287 207q-92 0 -162 -62.5t-109.5 -165.5 t-59 -220t-19.5 -242q0 -111 10 -195.5t20 -113.5l11 -29l-59 -15q-109 127 -109 394q0 91 18.5 186.5t59.5 190.5t99.5 169t145.5 120t189 46q132 0 236 -66.5t168 -179.5t97.5 -254.5t33.5 -299.5q0 -138 -26 -271t-80 -252.5t-130.5 -210t-185.5 -143.5t-236 -53 q-149 0 -275.5 69.5t-211 187.5t-131.5 274t-47 329zM521 1831l193 200l104 -102l-270 -141z" />
<glyph unicode="&#xd4;" horiz-adv-x="1432" d="M-11 809q0 129 29.5 247.5t73.5 204.5t103.5 161t110.5 121t104 81l43 -29q-139 -112 -220 -323t-81 -463q0 -167 28 -303.5t75 -229t111.5 -156t136.5 -92t151 -28.5q106 0 193.5 47t154 142t103.5 253t37 367q0 393 -113 600t-287 207q-92 0 -162 -62.5t-109.5 -165.5 t-59 -220t-19.5 -242q0 -111 10 -195.5t20 -113.5l11 -29l-59 -15q-109 127 -109 394q0 91 18.5 186.5t59.5 190.5t99.5 169t145.5 120t189 46q132 0 236 -66.5t168 -179.5t97.5 -254.5t33.5 -299.5q0 -138 -26 -271t-80 -252.5t-130.5 -210t-185.5 -143.5t-236 -53 q-149 0 -275.5 69.5t-211 187.5t-131.5 274t-47 329zM425 1843l266 195l266 -195l-30 -41l-236 123l-235 -123z" />
<glyph unicode="&#xd5;" horiz-adv-x="1432" d="M-11 809q0 129 29.5 247.5t73.5 204.5t103.5 161t110.5 121t104 81l43 -29q-139 -112 -220 -323t-81 -463q0 -167 28 -303.5t75 -229t111.5 -156t136.5 -92t151 -28.5q106 0 193.5 47t154 142t103.5 253t37 367q0 393 -113 600t-287 207q-92 0 -162 -62.5t-109.5 -165.5 t-59 -220t-19.5 -242q0 -111 10 -195.5t20 -113.5l11 -29l-59 -15q-109 127 -109 394q0 91 18.5 186.5t59.5 190.5t99.5 169t145.5 120t189 46q132 0 236 -66.5t168 -179.5t97.5 -254.5t33.5 -299.5q0 -138 -26 -271t-80 -252.5t-130.5 -210t-185.5 -143.5t-236 -53 q-149 0 -275.5 69.5t-211 187.5t-131.5 274t-47 329zM423 1843q0 7 1.5 18t10.5 39t23 50t42.5 39.5t65.5 17.5q41 0 128 -31t128 -31q28 0 46 15.5t22 31.5l4 15h41q0 -7 -1.5 -18t-10.5 -39t-23 -50t-42.5 -39.5t-65.5 -17.5q-41 0 -128.5 30.5t-127.5 30.5 q-17 0 -31 -6.5t-21.5 -15t-12 -17.5t-5.5 -15l-2 -7h-41z" />
<glyph unicode="&#xd6;" horiz-adv-x="1432" d="M-11 809q0 129 29.5 247.5t73.5 204.5t103.5 161t110.5 121t104 81l43 -29q-139 -112 -220 -323t-81 -463q0 -167 28 -303.5t75 -229t111.5 -156t136.5 -92t151 -28.5q106 0 193.5 47t154 142t103.5 253t37 367q0 393 -113 600t-287 207q-92 0 -162 -62.5t-109.5 -165.5 t-59 -220t-19.5 -242q0 -111 10 -195.5t20 -113.5l11 -29l-59 -15q-109 127 -109 394q0 91 18.5 186.5t59.5 190.5t99.5 169t145.5 120t189 46q132 0 236 -66.5t168 -179.5t97.5 -254.5t33.5 -299.5q0 -138 -26 -271t-80 -252.5t-130.5 -210t-185.5 -143.5t-236 -53 q-149 0 -275.5 69.5t-211 187.5t-131.5 274t-47 329zM456 1925q0 34 24 58t58 24q35 0 58.5 -24t23.5 -58q0 -35 -23.5 -58.5t-58.5 -23.5q-34 0 -58 23.5t-24 58.5zM722 1925q0 34 24 58t58 24q35 0 58.5 -24t23.5 -58q0 -35 -23.5 -58.5t-58.5 -23.5q-34 0 -58 23.5 t-24 58.5z" />
<glyph unicode="&#xd7;" horiz-adv-x="848" d="M123 330l242 241l-242 244l57 59l244 -243l244 243l57 -59l-244 -244l244 -241l-57 -60l-244 244l-244 -244z" />
<glyph unicode="&#xd8;" horiz-adv-x="1432" d="M-11 809q0 129 29.5 247.5t73.5 204.5t103.5 161t110.5 121t104 81l43 -29q-139 -112 -220 -323t-81 -463q0 -294 72.5 -474t198.5 -253l407 1517q-43 17 -88 17q-92 0 -162 -62.5t-109.5 -165.5t-59 -220t-19.5 -242q0 -111 10 -195.5t20 -113.5l11 -29l-59 -15 q-109 127 -109 394q0 91 18.5 186.5t59.5 190.5t99.5 169t145.5 120t189 46q37 0 74 -6l71 264l91 -24l-72 -264q121 -48 206.5 -167t125 -273t39.5 -330q0 -127 -25 -257t-77.5 -252.5t-126.5 -217t-181 -152t-231 -57.5q-81 0 -181 28l-71 -268l-93 23l76 278 q-192 94 -302.5 313.5t-110.5 491.5zM509 39q73 -29 155 -29q223 0 350.5 213t127.5 586q0 283 -61.5 471t-166.5 272z" />
<glyph unicode="&#xd9;" horiz-adv-x="1551" d="M-221 911q0 131 66.5 271.5t168 248.5t229 178t243.5 70q98 0 156.5 -63t58.5 -182q0 -99 -45 -262t-98.5 -311.5t-98.5 -320t-45 -284.5q0 -63 14.5 -110.5t35.5 -74.5t50 -43.5t54 -22t51 -5.5q112 0 214.5 100.5t188.5 274.5v47q0 190 22 407.5t59 408t93.5 316 t118.5 125.5q61 0 61 -133q0 -160 -53.5 -438.5t-148.5 -546.5v-63q0 -194 30.5 -289.5t100.5 -95.5q53 0 96.5 63.5t138.5 253.5l11 21l40 -31l-10 -21q-106 -212 -147 -273q-69 -102 -145 -121q-22 -5 -46 -5q-97 0 -149.5 73t-67.5 216q-186 -340 -418 -340 q-67 0 -126.5 23.5t-107 69.5t-75.5 122t-28 174q0 122 31.5 257.5t77 252.5t90.5 227t76.5 216t31.5 184q0 153 -123 153q-106 0 -211.5 -73.5t-181 -182.5t-123 -236.5t-47.5 -234.5q0 -76 29 -114.5t83 -38.5q77 0 156.5 88.5t130.5 228.5l41 -21q-18 -43 -39 -84 t-56 -91t-72.5 -86.5t-87.5 -61.5t-103 -25q-88 0 -141.5 55.5t-53.5 159.5zM746 1976l133 62l113 -256l-41 -31zM1178 723q63 214 99 426.5t36 333.5q0 104 -29 104q-37 0 -65 -268t-41 -596z" />
<glyph unicode="&#xda;" horiz-adv-x="1551" d="M-221 911q0 131 66.5 271.5t168 248.5t229 178t243.5 70q98 0 156.5 -63t58.5 -182q0 -99 -45 -262t-98.5 -311.5t-98.5 -320t-45 -284.5q0 -63 14.5 -110.5t35.5 -74.5t50 -43.5t54 -22t51 -5.5q112 0 214.5 100.5t188.5 274.5v47q0 190 22 407.5t59 408t93.5 316 t118.5 125.5q61 0 61 -133q0 -160 -53.5 -438.5t-148.5 -546.5v-63q0 -194 30.5 -289.5t100.5 -95.5q53 0 96.5 63.5t138.5 253.5l11 21l40 -31l-10 -21q-106 -212 -147 -273q-69 -102 -145 -121q-22 -5 -46 -5q-97 0 -149.5 73t-67.5 216q-186 -340 -418 -340 q-67 0 -126.5 23.5t-107 69.5t-75.5 122t-28 174q0 122 31.5 257.5t77 252.5t90.5 227t76.5 216t31.5 184q0 153 -123 153q-106 0 -211.5 -73.5t-181 -182.5t-123 -236.5t-47.5 -234.5q0 -76 29 -114.5t83 -38.5q77 0 156.5 88.5t130.5 228.5l41 -21q-18 -43 -39 -84 t-56 -91t-72.5 -86.5t-87.5 -61.5t-103 -25q-88 0 -141.5 55.5t-53.5 159.5zM823 1831l193 200l104 -102l-270 -141zM1178 723q63 214 99 426.5t36 333.5q0 104 -29 104q-37 0 -65 -268t-41 -596z" />
<glyph unicode="&#xdb;" horiz-adv-x="1551" d="M-221 911q0 131 66.5 271.5t168 248.5t229 178t243.5 70q98 0 156.5 -63t58.5 -182q0 -99 -45 -262t-98.5 -311.5t-98.5 -320t-45 -284.5q0 -63 14.5 -110.5t35.5 -74.5t50 -43.5t54 -22t51 -5.5q112 0 214.5 100.5t188.5 274.5v47q0 190 22 407.5t59 408t93.5 316 t118.5 125.5q61 0 61 -133q0 -160 -53.5 -438.5t-148.5 -546.5v-63q0 -194 30.5 -289.5t100.5 -95.5q53 0 96.5 63.5t138.5 253.5l11 21l40 -31l-10 -21q-106 -212 -147 -273q-69 -102 -145 -121q-22 -5 -46 -5q-97 0 -149.5 73t-67.5 216q-186 -340 -418 -340 q-67 0 -126.5 23.5t-107 69.5t-75.5 122t-28 174q0 122 31.5 257.5t77 252.5t90.5 227t76.5 216t31.5 184q0 153 -123 153q-106 0 -211.5 -73.5t-181 -182.5t-123 -236.5t-47.5 -234.5q0 -76 29 -114.5t83 -38.5q77 0 156.5 88.5t130.5 228.5l41 -21q-18 -43 -39 -84 t-56 -91t-72.5 -86.5t-87.5 -61.5t-103 -25q-88 0 -141.5 55.5t-53.5 159.5zM662 1843l266 195l266 -195l-30 -41l-236 123l-235 -123zM1178 723q63 214 99 426.5t36 333.5q0 104 -29 104q-37 0 -65 -268t-41 -596z" />
<glyph unicode="&#xdc;" horiz-adv-x="1551" d="M-221 911q0 131 66.5 271.5t168 248.5t229 178t243.5 70q98 0 156.5 -63t58.5 -182q0 -99 -45 -262t-98.5 -311.5t-98.5 -320t-45 -284.5q0 -63 14.5 -110.5t35.5 -74.5t50 -43.5t54 -22t51 -5.5q112 0 214.5 100.5t188.5 274.5v47q0 190 22 407.5t59 408t93.5 316 t118.5 125.5q61 0 61 -133q0 -160 -53.5 -438.5t-148.5 -546.5v-63q0 -194 30.5 -289.5t100.5 -95.5q53 0 96.5 63.5t138.5 253.5l11 21l40 -31l-10 -21q-106 -212 -147 -273q-69 -102 -145 -121q-22 -5 -46 -5q-97 0 -149.5 73t-67.5 216q-186 -340 -418 -340 q-67 0 -126.5 23.5t-107 69.5t-75.5 122t-28 174q0 122 31.5 257.5t77 252.5t90.5 227t76.5 216t31.5 184q0 153 -123 153q-106 0 -211.5 -73.5t-181 -182.5t-123 -236.5t-47.5 -234.5q0 -76 29 -114.5t83 -38.5q77 0 156.5 88.5t130.5 228.5l41 -21q-18 -43 -39 -84 t-56 -91t-72.5 -86.5t-87.5 -61.5t-103 -25q-88 0 -141.5 55.5t-53.5 159.5zM723 1925q0 34 24 58t58 24q35 0 58.5 -24t23.5 -58q0 -35 -23.5 -58.5t-58.5 -23.5q-34 0 -58 23.5t-24 58.5zM989 1925q0 34 24 58t58 24q35 0 58.5 -24t23.5 -58q0 -35 -23.5 -58.5 t-58.5 -23.5q-34 0 -58 23.5t-24 58.5zM1178 723q63 214 99 426.5t36 333.5q0 104 -29 104q-37 0 -65 -268t-41 -596z" />
<glyph unicode="&#xdd;" horiz-adv-x="1479" d="M-190 901q0 131 66.5 273t168 252t229.5 181.5t243 71.5q98 0 156.5 -63t58.5 -182q0 -99 -45 -263.5t-98.5 -314.5t-98.5 -323.5t-45 -286.5q0 -63 14.5 -109.5t35.5 -72t50.5 -40.5t53.5 -19.5t51 -4.5q127 0 238 120t204 326q16 549 37 760q42 402 152 462 q22 11 45 11q33 0 57 -34t24 -99q0 -140 -41 -380.5t-116 -483.5v-55q0 -702 -68 -1108l-153 -21q42 269 61 840q-196 -389 -451 -389q-68 0 -126.5 21.5t-106.5 65.5t-76 119t-28 173q0 122 31.5 258.5t77 255t90.5 230t76.5 218.5t31.5 185q0 153 -123 153 q-85 0 -171 -48.5t-155 -128.5t-123.5 -176t-84 -197.5t-29.5 -186.5q0 -76 29 -115t83 -39q77 0 156.5 88.5t130.5 229.5l41 -21q-23 -55 -53 -107.5t-75 -111t-105 -94t-125 -35.5q-88 0 -141.5 55.5t-53.5 159.5zM881 1831l193 200l104 -102l-270 -141zM1248 862 q44 184 70 354t26 267q0 104 -29 104q-41 0 -54 -123.5t-13 -380.5v-221z" />
<glyph unicode="&#xde;" horiz-adv-x="1197" d="M-11 432q0 260 98.5 479t272.5 349l-19 399l6 5q6 5 21 11t33 6q106 0 106 -67q0 -125 8 -266q139 55 283 55q213 0 347 -116t134 -322q0 -252 -200.5 -405.5t-532.5 -164.5v-40q-1 -40 -1.5 -102t-0.5 -116q0 -84 -10 -143t-35.5 -105.5t-72.5 -69t-116 -22.5 q-140 0 -230.5 179.5t-90.5 455.5zM102 330q0 -116 24.5 -225t72.5 -183t109 -74q66 0 85.5 58t19.5 209q0 189 -10 282q-17 3 -32 6.5t-21 6.5l-7 2l8 49q17 -6 48 -12l-35 727q-123 -126 -192.5 -340.5t-69.5 -505.5zM517 1286q24 -713 27 -840q253 10 407 158.5 t154 360.5q0 104 -27.5 179t-78 117t-112.5 61t-140 19q-123 0 -230 -55z" />
<glyph unicode="&#xdf;" horiz-adv-x="838" d="M-92 -164q80 0 80 164v872q0 264 80.5 382t248.5 118q109 0 191 -62.5t82 -170.5q0 -60 -32 -113t-77.5 -87.5t-90.5 -62t-77 -50t-32 -38.5t26 -32t68 -32t92.5 -35.5t101.5 -49t93 -66.5t68 -92.5t26 -122.5q0 -155 -91.5 -256.5t-240.5 -101.5q-103 0 -167 62.5 t-64 146.5q0 79 56.5 132.5t133.5 53.5q25 0 49 -6v-29q-61 0 -94 -38.5t-33 -96.5q0 -79 33.5 -126.5t97.5 -47.5q83 0 140 56t57 145q0 67 -23 123.5t-60 96t-82 73t-90 61t-82 53.5t-60 56t-23 63q0 29 14 52t37 38t50.5 30t55 33t50.5 40.5t37 59.5t14 85 q0 100 -50 152.5t-116 52.5q-104 0 -144 -81t-40 -265v-975q0 -67 -15 -111t-46 -66t-66 -30t-86 -8v51z" />
<glyph unicode="&#xe0;" horiz-adv-x="874" d="M-25 348q0 203 98.5 337t233.5 134q71 0 126.5 -55.5t72.5 -108.5l12 97q4 33 48 50t73 17q12 0 16 -4t4 -16q0 -10 -13.5 -86t-26.5 -203.5t-13 -261.5q0 -135 45 -135q30 0 74 63t119 213l30 62l41 -31l-30 -62q-95 -189 -155.5 -273.5t-119.5 -84.5q-111 0 -127 229 q-52 -102 -116.5 -165.5t-130.5 -63.5q-109 0 -185 90t-76 258zM117 420q0 -147 46.5 -227t125.5 -80q75 0 141 112.5t66 286.5q0 94 -52.5 170t-121.5 76q-87 0 -146 -94.5t-59 -243.5zM252 1116l133 62l113 -256l-41 -31z" />
<glyph unicode="&#xe1;" horiz-adv-x="874" d="M-25 348q0 203 98.5 337t233.5 134q71 0 126.5 -55.5t72.5 -108.5l12 97q4 33 48 50t73 17q12 0 16 -4t4 -16q0 -10 -13.5 -86t-26.5 -203.5t-13 -261.5q0 -135 45 -135q30 0 74 63t119 213l30 62l41 -31l-30 -62q-95 -189 -155.5 -273.5t-119.5 -84.5q-111 0 -127 229 q-52 -102 -116.5 -165.5t-130.5 -63.5q-109 0 -185 90t-76 258zM117 420q0 -147 46.5 -227t125.5 -80q75 0 141 112.5t66 286.5q0 94 -52.5 170t-121.5 76q-87 0 -146 -94.5t-59 -243.5zM248 971l193 200l104 -102l-270 -141z" />
<glyph unicode="&#xe2;" horiz-adv-x="874" d="M-25 348q0 203 98.5 337t233.5 134q71 0 126.5 -55.5t72.5 -108.5l12 97q4 33 48 50t73 17q12 0 16 -4t4 -16q0 -10 -13.5 -86t-26.5 -203.5t-13 -261.5q0 -135 45 -135q30 0 74 63t119 213l30 62l41 -31l-30 -62q-95 -189 -155.5 -273.5t-119.5 -84.5q-111 0 -127 229 q-52 -102 -116.5 -165.5t-130.5 -63.5q-109 0 -185 90t-76 258zM106 983l266 195l266 -195l-30 -41l-236 123l-235 -123zM117 420q0 -147 46.5 -227t125.5 -80q75 0 141 112.5t66 286.5q0 94 -52.5 170t-121.5 76q-87 0 -146 -94.5t-59 -243.5z" />
<glyph unicode="&#xe3;" horiz-adv-x="874" d="M-25 348q0 203 98.5 337t233.5 134q71 0 126.5 -55.5t72.5 -108.5l12 97q4 33 48 50t73 17q12 0 16 -4t4 -16q0 -10 -13.5 -86t-26.5 -203.5t-13 -261.5q0 -135 45 -135q30 0 74 63t119 213l30 62l41 -31l-30 -62q-95 -189 -155.5 -273.5t-119.5 -84.5q-111 0 -127 229 q-52 -102 -116.5 -165.5t-130.5 -63.5q-109 0 -185 90t-76 258zM111 983q0 7 1.5 18t10.5 39t23 50t42.5 39.5t65.5 17.5q41 0 128 -31t128 -31q28 0 46 15.5t22 31.5l4 15h41q0 -7 -1.5 -18t-10.5 -39t-23 -50t-42.5 -39.5t-65.5 -17.5q-41 0 -128.5 30.5t-127.5 30.5 q-17 0 -31 -6.5t-21.5 -15t-12 -17.5t-5.5 -15l-2 -7h-41zM117 420q0 -147 46.5 -227t125.5 -80q75 0 141 112.5t66 286.5q0 94 -52.5 170t-121.5 76q-87 0 -146 -94.5t-59 -243.5z" />
<glyph unicode="&#xe4;" horiz-adv-x="874" d="M-25 348q0 203 98.5 337t233.5 134q71 0 126.5 -55.5t72.5 -108.5l12 97q4 33 48 50t73 17q12 0 16 -4t4 -16q0 -10 -13.5 -86t-26.5 -203.5t-13 -261.5q0 -135 45 -135q30 0 74 63t119 213l30 62l41 -31l-30 -62q-95 -189 -155.5 -273.5t-119.5 -84.5q-111 0 -127 229 q-52 -102 -116.5 -165.5t-130.5 -63.5q-109 0 -185 90t-76 258zM117 420q0 -147 46.5 -227t125.5 -80q75 0 141 112.5t66 286.5q0 94 -52.5 170t-121.5 76q-87 0 -146 -94.5t-59 -243.5zM190 1065q0 34 24 58t58 24q35 0 58.5 -24t23.5 -58q0 -35 -23.5 -58.5t-58.5 -23.5 q-34 0 -58 23.5t-24 58.5zM456 1065q0 34 24 58t58 24q35 0 58.5 -24t23.5 -58q0 -35 -23.5 -58.5t-58.5 -23.5q-34 0 -58 23.5t-24 58.5z" />
<glyph unicode="&#xe5;" horiz-adv-x="874" d="M-25 348q0 203 98.5 337t233.5 134q71 0 126.5 -55.5t72.5 -108.5l12 97q4 33 48 50t73 17q12 0 16 -4t4 -16q0 -10 -13.5 -86t-26.5 -203.5t-13 -261.5q0 -135 45 -135q30 0 74 63t119 213l30 62l41 -31l-30 -62q-95 -189 -155.5 -273.5t-119.5 -84.5q-111 0 -127 229 q-52 -102 -116.5 -165.5t-130.5 -63.5q-109 0 -185 90t-76 258zM117 420q0 -147 46.5 -227t125.5 -80q75 0 141 112.5t66 286.5q0 94 -52.5 170t-121.5 76q-87 0 -146 -94.5t-59 -243.5zM262 1083q0 68 48.5 117t115.5 49t115.5 -49t48.5 -117q0 -66 -48.5 -113.5 t-115.5 -47.5t-115.5 47.5t-48.5 113.5zM323 1085q0 -41 31 -71.5t72 -30.5t71.5 30.5t30.5 71.5q0 42 -30.5 72.5t-71.5 30.5t-72 -30.5t-31 -72.5z" />
<glyph unicode="&#xe6;" horiz-adv-x="1157" d="M-25 348q0 201 96 336t218 135q85 0 143 -46.5t74 -96.5v76q0 33 36 50t62 17q20 0 27.5 -9t7.5 -32q0 -4 -1 -12.5t-3 -24.5l-4 -32q100 110 225 110q70 0 105.5 -35t35.5 -77t-26.5 -88t-62.5 -82.5t-91 -77t-94 -65t-88 -52.5q2 -58 9.5 -100t23.5 -77.5t44 -54 t68 -18.5q77 0 182.5 90t184.5 248l10 21l41 -31l-10 -21q-52 -102 -116.5 -182t-127.5 -125.5t-121 -68.5t-106 -23q-165 0 -201 190q-54 -85 -126.5 -137.5t-153.5 -52.5q-109 0 -185 90t-76 258zM117 420q0 -53 10 -104.5t30.5 -98t56.5 -75.5t83 -29q43 0 79.5 18 t58 43.5t37.5 54.5t22 49t6 29q0 25 2 94t2 111q0 93 -56 169.5t-126 76.5q-87 0 -146 -94.5t-59 -243.5zM635 393q40 22 80 49.5t82.5 64t69 79t26.5 80.5q0 40 -22.5 66t-63.5 26q-65 0 -118.5 -90.5t-53.5 -249.5v-25z" />
<glyph unicode="&#xe7;" horiz-adv-x="635" d="M-18 338q0 104 29.5 195.5t76.5 153t106 97t119 35.5q83 0 122.5 -41t39.5 -92q0 -45 -36.5 -87t-94.5 -56l-10 28q29 45 29 103q0 84 -78 84q-65 0 -118.5 -90.5t-53.5 -249.5q0 -137 55.5 -221t151.5 -84q146 0 305 317l10 21l41 -31l-10 -21q-179 -355 -367 -395v-29 q81 0 122.5 -22.5t41.5 -61.5q0 -48 -64.5 -103t-177.5 -85l-14 47q77 27 115.5 52.5t38.5 41.5q0 37 -113 37v119q-123 4 -194.5 101t-71.5 237z" />
<glyph unicode="&#xe8;" horiz-adv-x="606" d="M-43 338q0 208 106 344.5t246 136.5q67 0 104.5 -34.5t37.5 -88.5q0 -25 -6.5 -48.5t-24 -48t-31.5 -42.5t-47 -44.5t-51 -40.5t-63.5 -43.5t-64 -41t-71.5 -43.5q15 -106 68 -168.5t135 -62.5q146 0 305 317l10 21l41 -31l-10 -21q-103 -205 -207.5 -302t-202.5 -97 q-126 0 -200 98t-74 240zM88 395q52 28 103 67.5t93 96t42 107.5q0 39 -21 62.5t-53 23.5q-62 0 -113 -85t-51 -249v-23zM98 1116l133 62l113 -256l-41 -31z" />
<glyph unicode="&#xe9;" horiz-adv-x="606" d="M-43 338q0 208 106 344.5t246 136.5q67 0 104.5 -34.5t37.5 -88.5q0 -25 -6.5 -48.5t-24 -48t-31.5 -42.5t-47 -44.5t-51 -40.5t-63.5 -43.5t-64 -41t-71.5 -43.5q15 -106 68 -168.5t135 -62.5q146 0 305 317l10 21l41 -31l-10 -21q-103 -205 -207.5 -302t-202.5 -97 q-126 0 -200 98t-74 240zM88 395q52 28 103 67.5t93 96t42 107.5q0 39 -21 62.5t-53 23.5q-62 0 -113 -85t-51 -249v-23zM133 971l193 200l104 -102l-270 -141z" />
<glyph unicode="&#xea;" horiz-adv-x="606" d="M-43 338q0 208 106 344.5t246 136.5q67 0 104.5 -34.5t37.5 -88.5q0 -25 -6.5 -48.5t-24 -48t-31.5 -42.5t-47 -44.5t-51 -40.5t-63.5 -43.5t-64 -41t-71.5 -43.5q15 -106 68 -168.5t135 -62.5q146 0 305 317l10 21l41 -31l-10 -21q-103 -205 -207.5 -302t-202.5 -97 q-126 0 -200 98t-74 240zM6 983l266 195l266 -195l-30 -41l-236 123l-235 -123zM88 395q52 28 103 67.5t93 96t42 107.5q0 39 -21 62.5t-53 23.5q-62 0 -113 -85t-51 -249v-23z" />
<glyph unicode="&#xeb;" horiz-adv-x="606" d="M-43 338q0 208 106 344.5t246 136.5q67 0 104.5 -34.5t37.5 -88.5q0 -25 -6.5 -48.5t-24 -48t-31.5 -42.5t-47 -44.5t-51 -40.5t-63.5 -43.5t-64 -41t-71.5 -43.5q15 -106 68 -168.5t135 -62.5q146 0 305 317l10 21l41 -31l-10 -21q-103 -205 -207.5 -302t-202.5 -97 q-126 0 -200 98t-74 240zM68 1065q0 34 24 58t58 24q35 0 58.5 -24t23.5 -58q0 -35 -23.5 -58.5t-58.5 -23.5q-34 0 -58 23.5t-24 58.5zM88 395q52 28 103 67.5t93 96t42 107.5q0 39 -21 62.5t-53 23.5q-62 0 -113 -85t-51 -249v-23zM334 1065q0 34 24 58t58 24 q35 0 58.5 -24t23.5 -58q0 -35 -23.5 -58.5t-58.5 -23.5q-34 0 -58 23.5t-24 58.5z" />
<glyph unicode="&#xec;" horiz-adv-x="494" d="M-10 430l10 21q30 59 50.5 131t32 127.5t17.5 68.5q10 20 37.5 30.5t44.5 10.5q22 0 29.5 -9t7.5 -32q0 -7 -7.5 -79.5t-14.5 -184.5t-7 -215q0 -60 5.5 -99t16 -55.5t20.5 -22t24 -5.5q35 0 86.5 68.5t140.5 244.5l11 21l41 -31l-11 -21q-104 -205 -152 -275 q-85 -124 -161 -124q-79 0 -115.5 73.5t-36.5 252.5q0 73 2 114h-10l-20 -41zM61 1116l133 62l113 -256l-41 -31z" />
<glyph unicode="&#xed;" horiz-adv-x="494" d="M-10 430l10 21q30 59 50.5 131t32 127.5t17.5 68.5q10 20 37.5 30.5t44.5 10.5q22 0 29.5 -9t7.5 -32q0 -7 -7.5 -79.5t-14.5 -184.5t-7 -215q0 -60 5.5 -99t16 -55.5t20.5 -22t24 -5.5q35 0 86.5 68.5t140.5 244.5l11 21l41 -31l-11 -21q-104 -205 -152 -275 q-85 -124 -161 -124q-79 0 -115.5 73.5t-36.5 252.5q0 73 2 114h-10l-20 -41zM16 971l193 200l104 -102l-270 -141z" />
<glyph unicode="&#xee;" horiz-adv-x="494" d="M-100 983l266 195l266 -195l-30 -41l-236 123l-235 -123zM-10 430l10 21q30 59 50.5 131t32 127.5t17.5 68.5q10 20 37.5 30.5t44.5 10.5q22 0 29.5 -9t7.5 -32q0 -7 -7.5 -79.5t-14.5 -184.5t-7 -215q0 -60 5.5 -99t16 -55.5t20.5 -22t24 -5.5q35 0 86.5 68.5 t140.5 244.5l11 21l41 -31l-11 -21q-104 -205 -152 -275q-85 -124 -161 -124q-79 0 -115.5 73.5t-36.5 252.5q0 73 2 114h-10l-20 -41z" />
<glyph unicode="&#xef;" horiz-adv-x="494" d="M-20 1065q0 34 24 58t58 24q35 0 58.5 -24t23.5 -58q0 -35 -23.5 -58.5t-58.5 -23.5q-34 0 -58 23.5t-24 58.5zM-10 430l10 21q30 59 50.5 131t32 127.5t17.5 68.5q10 20 37.5 30.5t44.5 10.5q22 0 29.5 -9t7.5 -32q0 -7 -7.5 -79.5t-14.5 -184.5t-7 -215q0 -60 5.5 -99 t16 -55.5t20.5 -22t24 -5.5q35 0 86.5 68.5t140.5 244.5l11 21l41 -31l-11 -21q-104 -205 -152 -275q-85 -124 -161 -124q-79 0 -115.5 73.5t-36.5 252.5q0 73 2 114h-10l-20 -41zM246 1065q0 34 24 58t58 24q35 0 58.5 -24t23.5 -58q0 -35 -23.5 -58.5t-58.5 -23.5 q-34 0 -58 23.5t-24 58.5z" />
<glyph unicode="&#xf0;" horiz-adv-x="768" d="M-10 389q0 106 30.5 194t80 143t108.5 84.5t119 29.5q97 0 164 -69q-43 170 -130 344l-137 -79l-30 54l139 80q-27 50 -56.5 99t-52.5 82.5t-42 60t-30 39.5l-10 13l41 31q5 -4 13 -12.5t33.5 -36.5t51.5 -58t62 -77.5t68 -95.5l110 63l31 -53l-107 -62 q224 -355 224 -684q0 -212 -97.5 -345.5t-250.5 -133.5q-151 0 -241.5 109t-90.5 280zM133 410q0 -94 22.5 -175t68 -132.5t104.5 -51.5q92 0 148 109.5t56 300.5q0 103 -19 211q-11 23 -25 42.5t-34 40t-47.5 32.5t-58.5 12q-88 0 -151.5 -104.5t-63.5 -284.5z" />
<glyph unicode="&#xf1;" d="M-33 49q0 49 31 191v489q0 41 4 49q18 41 111 41q17 0 23.5 -9t6.5 -32q-8 -69 -12 -198q67 105 144.5 172t154.5 67q73 0 109 -46.5t36 -129.5q0 -69 -21.5 -240.5t-21.5 -238.5q0 -66 41 -66q29 0 79.5 70.5t146.5 261.5l10 21l41 -31l-10 -21q-116 -231 -187.5 -315 t-140.5 -84q-115 0 -115 133q0 86 26 285t26 250q0 38 -16.5 60t-47.5 22q-53 0 -128.5 -85.5t-127.5 -189.5q-8 -234 -8 -414q0 -27 -40.5 -44t-72.5 -17q-41 0 -41 49zM14 983q0 7 1.5 18t10.5 39t23 50t42.5 39.5t65.5 17.5q41 0 128 -31t128 -31q28 0 46 15.5t22 31.5 l4 15h41q0 -7 -1.5 -18t-10.5 -39t-23 -50t-42.5 -39.5t-65.5 -17.5q-41 0 -128.5 30.5t-127.5 30.5q-17 0 -31 -6.5t-21.5 -15t-12 -17.5t-6.5 -15l-1 -7h-41z" />
<glyph unicode="&#xf2;" horiz-adv-x="797" d="M-10 410q0 83 23.5 157t58 122.5t74.5 83.5t71 51t49 16l13 -35q-6 -4 -16 -12t-35 -40t-44 -72.5t-35 -113t-16 -157.5q0 -146 53.5 -252.5t141.5 -106.5q122 0 166 189q-108 24 -184.5 118.5t-76.5 225.5q0 107 50.5 167t124.5 60q92 0 166.5 -100t74.5 -273 q0 -66 -16 -135q105 32 153 127l11 21l41 -31l-11 -21q-33 -66 -89 -107.5t-124 -53.5q-39 -107 -114.5 -172.5t-177.5 -65.5q-150 0 -241 118t-91 292zM152 1116l133 62l113 -256l-41 -31zM299 592q0 -114 59 -193t146 -100q8 49 8 121q0 138 -39 224.5t-92 86.5 q-35 0 -58.5 -37.5t-23.5 -101.5z" />
<glyph unicode="&#xf3;" horiz-adv-x="797" d="M-10 410q0 83 23.5 157t58 122.5t74.5 83.5t71 51t49 16l13 -35q-6 -4 -16 -12t-35 -40t-44 -72.5t-35 -113t-16 -157.5q0 -146 53.5 -252.5t141.5 -106.5q122 0 166 189q-108 24 -184.5 118.5t-76.5 225.5q0 107 50.5 167t124.5 60q92 0 166.5 -100t74.5 -273 q0 -66 -16 -135q105 32 153 127l11 21l41 -31l-11 -21q-33 -66 -89 -107.5t-124 -53.5q-39 -107 -114.5 -172.5t-177.5 -65.5q-150 0 -241 118t-91 292zM168 971l193 200l104 -102l-270 -141zM299 592q0 -114 59 -193t146 -100q8 49 8 121q0 138 -39 224.5t-92 86.5 q-35 0 -58.5 -37.5t-23.5 -101.5z" />
<glyph unicode="&#xf4;" horiz-adv-x="797" d="M-10 410q0 83 23.5 157t58 122.5t74.5 83.5t71 51t49 16l13 -35q-6 -4 -16 -12t-35 -40t-44 -72.5t-35 -113t-16 -157.5q0 -146 53.5 -252.5t141.5 -106.5q122 0 166 189q-108 24 -184.5 118.5t-76.5 225.5q0 107 50.5 167t124.5 60q92 0 166.5 -100t74.5 -273 q0 -66 -16 -135q105 32 153 127l11 21l41 -31l-11 -21q-33 -66 -89 -107.5t-124 -53.5q-39 -107 -114.5 -172.5t-177.5 -65.5q-150 0 -241 118t-91 292zM49 983l266 195l266 -195l-30 -41l-236 123l-235 -123zM299 592q0 -114 59 -193t146 -100q8 49 8 121q0 138 -39 224.5 t-92 86.5q-35 0 -58.5 -37.5t-23.5 -101.5z" />
<glyph unicode="&#xf5;" horiz-adv-x="797" d="M-10 410q0 83 23.5 157t58 122.5t74.5 83.5t71 51t49 16l13 -35q-6 -4 -16 -12t-35 -40t-44 -72.5t-35 -113t-16 -157.5q0 -146 53.5 -252.5t141.5 -106.5q122 0 166 189q-108 24 -184.5 118.5t-76.5 225.5q0 107 50.5 167t124.5 60q92 0 166.5 -100t74.5 -273 q0 -66 -16 -135q105 32 153 127l11 21l41 -31l-11 -21q-33 -66 -89 -107.5t-124 -53.5q-39 -107 -114.5 -172.5t-177.5 -65.5q-150 0 -241 118t-91 292zM55 983q0 7 1.5 18t10.5 39t23 50t42.5 39.5t65.5 17.5q41 0 128 -31t128 -31q28 0 46 15.5t22 31.5l4 15h41 q0 -7 -1.5 -18t-10.5 -39t-23 -50t-42.5 -39.5t-65.5 -17.5q-41 0 -128.5 30.5t-127.5 30.5q-17 0 -31 -6.5t-21.5 -15t-12 -17.5t-5.5 -15l-2 -7h-41zM299 592q0 -114 59 -193t146 -100q8 49 8 121q0 138 -39 224.5t-92 86.5q-35 0 -58.5 -37.5t-23.5 -101.5z" />
<glyph unicode="&#xf6;" horiz-adv-x="797" d="M-10 410q0 83 23.5 157t58 122.5t74.5 83.5t71 51t49 16l13 -35q-6 -4 -16 -12t-35 -40t-44 -72.5t-35 -113t-16 -157.5q0 -146 53.5 -252.5t141.5 -106.5q122 0 166 189q-108 24 -184.5 118.5t-76.5 225.5q0 107 50.5 167t124.5 60q92 0 166.5 -100t74.5 -273 q0 -66 -16 -135q105 32 153 127l11 21l41 -31l-11 -21q-33 -66 -89 -107.5t-124 -53.5q-39 -107 -114.5 -172.5t-177.5 -65.5q-150 0 -241 118t-91 292zM106 1065q0 34 24 58t58 24q35 0 58.5 -24t23.5 -58q0 -35 -23.5 -58.5t-58.5 -23.5q-34 0 -58 23.5t-24 58.5zM299 592 q0 -114 59 -193t146 -100q8 49 8 121q0 138 -39 224.5t-92 86.5q-35 0 -58.5 -37.5t-23.5 -101.5zM372 1065q0 34 24 58t58 24q35 0 58.5 -24t23.5 -58q0 -35 -23.5 -58.5t-58.5 -23.5q-34 0 -58 23.5t-24 58.5z" />
<glyph unicode="&#xf7;" horiz-adv-x="850" d="M123 532v82h604v-82h-604zM332 349q0 38 27 65t65 27t65 -27t27 -65q0 -39 -27 -66t-65 -27t-65 27t-27 66zM332 820q0 38 27 65t65 27t65 -27t27 -65q0 -39 -27 -66t-65 -27t-65 27t-27 66z" />
<glyph unicode="&#xf8;" horiz-adv-x="797" d="M-10 410q0 83 23.5 157t58 122.5t74.5 83.5t71 51t49 16l13 -35q-6 -4 -16 -12t-35 -40t-44 -72.5t-35 -113t-16 -157.5q0 -146 53.5 -252.5t141.5 -106.5q122 0 166 189q-108 24 -184.5 118.5t-76.5 225.5q0 106 49.5 165.5t123.5 61.5l38 145l72 -20l-39 -141 q73 -34 122.5 -126.5t49.5 -230.5q0 -66 -16 -135q105 32 153 127l11 21l41 -31l-11 -21q-33 -66 -89 -107.5t-124 -53.5q-39 -107 -114.5 -172.5t-177.5 -65.5q-39 0 -56 4l-43 -158l-71 19l43 162q-96 44 -150.5 147.5t-54.5 235.5zM299 592q0 -114 59 -193t146 -100 q8 49 8 121q0 138 -39 224.5t-92 86.5q-35 0 -58.5 -37.5t-23.5 -101.5z" />
<glyph unicode="&#xf9;" d="M-8 287q0 102 10.5 220t21.5 189.5t17 87.5q7 17 40.5 26t63.5 9q35 0 35 -35q0 -3 -22.5 -184t-22.5 -272q0 -110 24 -162.5t77 -52.5q47 0 94.5 68.5t81.5 193.5q6 59 12.5 150t11.5 157t8 88q5 24 40.5 36.5t60.5 12.5q30 0 30 -31q0 -24 -16 -258t-16 -284 q0 -75 8.5 -110.5t32.5 -35.5q18 0 38.5 20t48 66.5t51 91.5t63.5 124q9 19 14 28l10 21l41 -31l-10 -21q-14 -27 -39 -78q-39 -79 -57 -114.5t-47.5 -85t-49.5 -70t-47.5 -36t-56.5 -15.5q-74 0 -103.5 54.5t-29.5 162.5q-2 -2 -18 -34t-34 -58t-45 -57t-64.5 -49.5 t-78.5 -18.5q-32 0 -60.5 12.5t-56.5 42.5t-44.5 89.5t-16.5 142.5zM123 1116l133 62l113 -256l-41 -31z" />
<glyph unicode="&#xfa;" d="M-8 287q0 102 10.5 220t21.5 189.5t17 87.5q7 17 40.5 26t63.5 9q35 0 35 -35q0 -3 -22.5 -184t-22.5 -272q0 -110 24 -162.5t77 -52.5q47 0 94.5 68.5t81.5 193.5q6 59 12.5 150t11.5 157t8 88q5 24 40.5 36.5t60.5 12.5q30 0 30 -31q0 -24 -16 -258t-16 -284 q0 -75 8.5 -110.5t32.5 -35.5q18 0 38.5 20t48 66.5t51 91.5t63.5 124q9 19 14 28l10 21l41 -31l-10 -21q-14 -27 -39 -78q-39 -79 -57 -114.5t-47.5 -85t-49.5 -70t-47.5 -36t-56.5 -15.5q-74 0 -103.5 54.5t-29.5 162.5q-2 -2 -18 -34t-34 -58t-45 -57t-64.5 -49.5 t-78.5 -18.5q-32 0 -60.5 12.5t-56.5 42.5t-44.5 89.5t-16.5 142.5zM236 971l193 200l104 -102l-270 -141z" />
<glyph unicode="&#xfb;" d="M-8 287q0 102 10.5 220t21.5 189.5t17 87.5q7 17 40.5 26t63.5 9q35 0 35 -35q0 -3 -22.5 -184t-22.5 -272q0 -110 24 -162.5t77 -52.5q47 0 94.5 68.5t81.5 193.5q6 59 12.5 150t11.5 157t8 88q5 24 40.5 36.5t60.5 12.5q30 0 30 -31q0 -24 -16 -258t-16 -284 q0 -75 8.5 -110.5t32.5 -35.5q18 0 38.5 20t48 66.5t51 91.5t63.5 124q9 19 14 28l10 21l41 -31l-10 -21q-14 -27 -39 -78q-39 -79 -57 -114.5t-47.5 -85t-49.5 -70t-47.5 -36t-56.5 -15.5q-74 0 -103.5 54.5t-29.5 162.5q-2 -2 -18 -34t-34 -58t-45 -57t-64.5 -49.5 t-78.5 -18.5q-32 0 -60.5 12.5t-56.5 42.5t-44.5 89.5t-16.5 142.5zM55 983l266 195l266 -195l-30 -41l-236 123l-235 -123z" />
<glyph unicode="&#xfc;" d="M-8 287q0 102 10.5 220t21.5 189.5t17 87.5q7 17 40.5 26t63.5 9q35 0 35 -35q0 -3 -22.5 -184t-22.5 -272q0 -110 24 -162.5t77 -52.5q47 0 94.5 68.5t81.5 193.5q6 59 12.5 150t11.5 157t8 88q5 24 40.5 36.5t60.5 12.5q30 0 30 -31q0 -24 -16 -258t-16 -284 q0 -75 8.5 -110.5t32.5 -35.5q18 0 38.5 20t48 66.5t51 91.5t63.5 124q9 19 14 28l10 21l41 -31l-10 -21q-14 -27 -39 -78q-39 -79 -57 -114.5t-47.5 -85t-49.5 -70t-47.5 -36t-56.5 -15.5q-74 0 -103.5 54.5t-29.5 162.5q-2 -2 -18 -34t-34 -58t-45 -57t-64.5 -49.5 t-78.5 -18.5q-32 0 -60.5 12.5t-56.5 42.5t-44.5 89.5t-16.5 142.5zM96 1065q0 34 24 58t58 24q35 0 58.5 -24t23.5 -58q0 -35 -23.5 -58.5t-58.5 -23.5q-34 0 -58 23.5t-24 58.5zM362 1065q0 34 24 58t58 24q35 0 58.5 -24t23.5 -58q0 -35 -23.5 -58.5t-58.5 -23.5 q-34 0 -58 23.5t-24 58.5z" />
<glyph unicode="&#xfd;" horiz-adv-x="795" d="M-20 246q0 148 29.5 311t53.5 234q11 28 103 28q14 0 19 -7t5 -24q0 -8 -17 -97.5t-33.5 -213t-16.5 -211.5q0 -83 27.5 -128.5t68.5 -45.5q63 0 114 92t109 289v291q0 16 15 27.5t36.5 17t38.5 8t27 2.5q31 0 31 -31q0 -5 -5 -97t-5 -159v-407q49 64 111.5 154.5 t92.5 150.5l11 21l41 -31l-11 -21q-65 -129 -245 -352v-221q0 -175 -58.5 -256.5t-156.5 -81.5q-58 0 -96 36.5t-38 96.5q0 81 52 166t163 221v303q-114 -311 -274 -311q-35 0 -66 11.5t-61 37t-47.5 76.5t-17.5 121zM248 971l193 200l104 -102l-270 -141zM289 -373 q0 -32 17.5 -55t47.5 -23q19 0 33 7t28.5 28.5t22.5 69.5t8 121v151q-77 -96 -117 -167t-40 -132z" />
<glyph unicode="&#xfe;" horiz-adv-x="772" d="M-14 -481q0 2 3 34.5t6 108.5t3 184v1325q0 20 31 39t65 19q37 0 37 -41q0 -4 -3 -72.5t-3 -124.5v-360q37 81 101 134.5t147 53.5q114 0 179.5 -100.5t65.5 -243.5q0 -199 -75 -330q122 93 219 285l10 21l41 -31l-10 -21q-94 -187 -220 -293t-264 -106q-59 0 -112 26.5 t-82 67.5v-473q0 -78 -19 -105.5t-79 -27.5q-41 0 -41 31zM127 305q0 -106 52 -171.5t126 -65.5q172 0 172 364q0 136 -39 217.5t-119 81.5q-53 0 -98.5 -49t-69.5 -120t-24 -142v-115z" />
<glyph unicode="&#xff;" horiz-adv-x="795" d="M-20 246q0 148 29.5 311t53.5 234q11 28 103 28q14 0 19 -7t5 -24q0 -8 -17 -97.5t-33.5 -213t-16.5 -211.5q0 -83 27.5 -128.5t68.5 -45.5q63 0 114 92t109 289v291q0 16 15 27.5t36.5 17t38.5 8t27 2.5q31 0 31 -31q0 -5 -5 -97t-5 -159v-407q49 64 111.5 154.5 t92.5 150.5l11 21l41 -31l-11 -21q-65 -129 -245 -352v-221q0 -175 -58.5 -256.5t-156.5 -81.5q-58 0 -96 36.5t-38 96.5q0 81 52 166t163 221v303q-114 -311 -274 -311q-35 0 -66 11.5t-61 37t-47.5 76.5t-17.5 121zM117 1065q0 34 24 58t58 24q35 0 58.5 -24t23.5 -58 q0 -35 -23.5 -58.5t-58.5 -23.5q-34 0 -58 23.5t-24 58.5zM289 -373q0 -32 17.5 -55t47.5 -23q19 0 33 7t28.5 28.5t22.5 69.5t8 121v151q-77 -96 -117 -167t-40 -132zM383 1065q0 34 24 58t58 24q35 0 58.5 -24t23.5 -58q0 -35 -23.5 -58.5t-58.5 -23.5q-34 0 -58 23.5 t-24 58.5z" />
<glyph unicode="&#x131;" horiz-adv-x="494" d="M-10 430l10 21q30 59 50.5 131t32 127.5t17.5 68.5q10 20 37.5 30.5t44.5 10.5q22 0 29.5 -9t7.5 -32q0 -7 -7.5 -79.5t-14.5 -184.5t-7 -215q0 -60 5.5 -99t16 -55.5t20.5 -22t24 -5.5q35 0 86.5 68.5t140.5 244.5l11 21l41 -31l-11 -21q-104 -205 -152 -275 q-85 -124 -161 -124q-79 0 -115.5 73.5t-36.5 252.5q0 73 2 114h-10l-20 -41z" />
<glyph unicode="&#x141;" horiz-adv-x="818" d="M-161 102q0 49 56 86t145 37q84 0 192 -32q84 132 84 350q0 101 -6 190q-54 4 -86 4q-31 0 -58 -9.5t-44 -24t-26.5 -26.5t-14.5 -22l-41 31q66 133 204 133q8 0 28 -1t32 -1q-6 69 -20 179.5t-21.5 194t-7.5 161.5t29 142t76.5 103.5t104.5 60.5t117 21q129 0 213 -73.5 t84 -182.5q0 -105 -58.5 -189t-135.5 -138l-31 41q113 96 113 266q0 96 -47 160.5t-127 64.5q-74 0 -124.5 -64.5t-50.5 -181.5q0 -67 23 -266t31 -317q153 -21 182 -21q85 0 113 41l30 -20q-61 -123 -164 -123q-43 0 -157 29q4 -86 4 -132q0 -251 -156 -417 q66 -30 162.5 -86t164.5 -95.5t161 -70.5t180 -31q119 0 184 35l21 -27q-49 -41 -147 -79t-191 -38q-70 0 -139.5 15.5t-119.5 34.5t-114 57.5t-96 61t-93.5 69.5t-80.5 61q-116 -73 -228 -73q-77 0 -113 33.5t-36 78.5zM-104 102q0 -30 24.5 -45.5t67.5 -15.5q91 0 168 63 q-94 60 -157 60q-45 0 -74 -16t-29 -46z" />
<glyph unicode="&#x142;" horiz-adv-x="436" d="M-152 451q-24 147 86 228q12 9 58 36q8 180 26.5 334t33.5 218l14 64l81 -24q-14 -258 -19 -524q30 15 48 26t40 28.5t33 37.5t10 43l36 1q23 -136 -60 -196q-30 -22 -108 -51v-56q0 -118 4.5 -206t12 -141.5t19.5 -86t24 -44t28 -11.5q61 0 211 303l10 21l41 -31 l-10 -21q-112 -224 -176.5 -311.5t-130.5 -87.5q-89 0 -131.5 110.5t-42.5 340.5q0 60 2 164q-8 -4 -22 -14q-47 -34 -59.5 -78.5t-6.5 -72.5z" />
<glyph unicode="&#x152;" horiz-adv-x="2068" d="M-11 788q0 151 34.5 285.5t89.5 231.5t127.5 174.5t145 124t144.5 69.5l22 -45q-161 -77 -261.5 -295.5t-100.5 -494.5q0 -159 23 -287t61 -212.5t90.5 -141t109.5 -81t119 -24.5q153 0 260 109q-73 118 -73 280q0 170 66.5 299t186.5 209q-16 124 -63 236q-27 -2 -80 -2 q-156 0 -242 50t-86 130q0 66 48 108.5t118 42.5q81 0 164 -69.5t139 -200.5l84 12q-10 44 -10 103q0 123 66 202.5t184 79.5q82 0 126 -43t44 -112q0 -77 -82 -147t-221 -111q11 -50 40.5 -95.5t74.5 -74.5q68 8 106 8q56 0 84.5 -16.5t28.5 -38.5q0 -19 -20.5 -33 t-51.5 -14q-99 0 -172 34q-119 -28 -201 -112q4 -66 4 -107q0 -314 -110 -526q51 -124 152 -189t221 -65q83 0 160 32.5t134 94.5q-139 11 -234 99t-95 227q0 135 78 212.5t182 77.5q103 0 176.5 -75.5t73.5 -214.5q0 -148 -60 -265q165 23 264 224l11 20l41 -31l-11 -20 q-117 -233 -344 -254q-72 -100 -188 -151.5t-248 -51.5q-123 0 -235 46t-187 134q-143 -143 -344 -143q-254 0 -408.5 206.5t-154.5 581.5zM665 1401q0 -49 55 -86t180 -37h43q-50 90 -111 138t-106 48q-31 0 -46 -18.5t-15 -44.5zM964 522q0 -64 10 -129q70 184 70 426v19 q-80 -134 -80 -316zM1052 1233q32 -94 49 -205q70 36 143 53q-75 61 -112 164q-9 -1 -24.5 -4t-29 -5t-26.5 -3zM1214 1321q118 35 188 92.5t70 116.5q0 33 -24 58.5t-58 25.5q-65 0 -120.5 -80.5t-55.5 -202.5v-10zM1464 512q0 -101 75.5 -185t180.5 -100q71 116 71 265 q0 107 -47.5 164t-114.5 57q-65 0 -115 -54.5t-50 -146.5z" />
<glyph unicode="&#x153;" horiz-adv-x="1178" d="M-10 410q0 83 23.5 157t58 122.5t74.5 83.5t71 51t49 16l13 -35q-6 -4 -16 -12t-35 -40t-44 -72.5t-35 -113t-16 -157.5q0 -95 20 -175t62.5 -132t101.5 -52q83 0 134 86t59 232q-115 12 -196 85.5t-81 170.5q0 69 43.5 118.5t110.5 49.5q62 0 116 -44t85 -104 q56 80 134 127t157 47q74 0 112.5 -36.5t38.5 -94.5q0 -94 -104 -188.5t-264 -122.5q1 -112 52 -179t130 -67t163.5 74.5t159.5 224.5l11 21l41 -31l-11 -21q-93 -185 -194.5 -280.5t-202.5 -95.5q-72 0 -133.5 37t-104.5 102q-100 -162 -262 -162q-149 0 -235 117t-86 293z M299 625q0 -76 61 -132.5t150 -68.5q0 33 -5.5 76.5t-18 97t-40 89.5t-65.5 36q-35 0 -58.5 -26t-23.5 -72zM664 432q111 25 183.5 91t72.5 163q0 38 -17.5 58t-46.5 20q-62 0 -122 -89.5t-70 -242.5z" />
<glyph unicode="&#x160;" horiz-adv-x="1096" d="M0 1145q0 153 83.5 276.5t221.5 190.5t299 67q192 0 288.5 -81t96.5 -197q0 -110 -66 -194t-135 -113l-30 41q45 34 72.5 93t27.5 122q0 50 -17 96t-52 85.5t-96 63t-140 23.5q-183 0 -317 -111t-134 -258q0 -66 29 -123t78 -100t112.5 -82t133.5 -74.5t140 -71.5 t133.5 -78.5t112.5 -90.5t78 -112.5t29 -139.5q0 -111 -68 -209t-188 -158.5t-262 -60.5q-94 0 -167.5 17.5t-118 45t-73.5 64t-40 70.5t-11 69q0 56 22.5 104t56 79.5t77 56.5t80.5 37.5t72 19.5l10 -51q-13 -4 -32.5 -13.5t-49.5 -30.5t-54 -46.5t-41.5 -66t-17.5 -85.5 q0 -88 73.5 -153.5t201.5 -65.5q94 0 167.5 22t115.5 55t69 77t36 82.5t9 76.5q0 82 -45 149t-117 113.5t-158.5 88.5t-173.5 86.5t-159 96t-117 127.5t-45 171zM291 1997l31 41l235 -123l236 123l30 -41l-266 -195z" />
<glyph unicode="&#x161;" horiz-adv-x="645" d="M-27 1198l31 41l235 -123l236 123l30 -41l-266 -195zM-10 430l102 223q-38 37 -55 68.5t-17 73.5q0 48 31.5 82t73.5 34q37 0 56.5 -20.5t19.5 -54.5q0 -31 -27 -119q29 -23 87 -52.5t109.5 -57t102.5 -63.5t81 -86t30 -110q0 -143 -84 -245.5t-228 -102.5 q-103 0 -167 62.5t-64 146.5q0 79 56.5 132.5t133.5 53.5q24 0 50 -6v-29q-66 0 -117 -49.5t-51 -120.5q0 -66 46 -105.5t124 -39.5q80 0 129 57.5t49 149.5q0 49 -23.5 94t-63.5 82.5t-80.5 68t-89 65.5t-73.5 59l-100 -222zM96 831q0 -46 41 -83q21 45 21 81q0 16 -9 26.5 t-22 10.5q-14 0 -22.5 -9.5t-8.5 -25.5z" />
<glyph unicode="&#x178;" horiz-adv-x="1479" d="M-190 901q0 131 66.5 273t168 252t229.5 181.5t243 71.5q98 0 156.5 -63t58.5 -182q0 -99 -45 -263.5t-98.5 -314.5t-98.5 -323.5t-45 -286.5q0 -63 14.5 -109.5t35.5 -72t50.5 -40.5t53.5 -19.5t51 -4.5q127 0 238 120t204 326q16 549 37 760q42 402 152 462 q22 11 45 11q33 0 57 -34t24 -99q0 -140 -41 -380.5t-116 -483.5v-55q0 -702 -68 -1108l-153 -21q42 269 61 840q-196 -389 -451 -389q-68 0 -126.5 21.5t-106.5 65.5t-76 119t-28 173q0 122 31.5 258.5t77 255t90.5 230t76.5 218.5t31.5 185q0 153 -123 153 q-85 0 -171 -48.5t-155 -128.5t-123.5 -176t-84 -197.5t-29.5 -186.5q0 -76 29 -115t83 -39q77 0 156.5 88.5t130.5 229.5l41 -21q-23 -55 -53 -107.5t-75 -111t-105 -94t-125 -35.5q-88 0 -141.5 55.5t-53.5 159.5zM734 1925q0 34 24 58t58 24q35 0 58.5 -24t23.5 -58 q0 -35 -23.5 -58.5t-58.5 -23.5q-34 0 -58 23.5t-24 58.5zM1000 1925q0 34 24 58t58 24q35 0 58.5 -24t23.5 -58q0 -35 -23.5 -58.5t-58.5 -23.5q-34 0 -58 23.5t-24 58.5zM1248 862q44 184 70 354t26 267q0 104 -29 104q-41 0 -54 -123.5t-13 -380.5v-221z" />
<glyph unicode="&#x17d;" horiz-adv-x="1332" d="M-61 102q0 70 70 127.5t186 57.5q78 0 164 -21q109 149 276 492h-168l19 61h178q19 39 72 162t102 222.5t100 178.5q-51 13 -184 56t-235 65.5t-197 22.5q-193 0 -193 -144q0 -59 44 -96t131 -37q52 0 99.5 18.5t68.5 36.5l22 19l18 -43q-4 -3 -10.5 -8.5t-28.5 -20 t-45 -25t-57 -19.5t-67 -9q-111 0 -174.5 59.5t-63.5 145.5q0 116 82.5 196t241.5 80q110 0 218.5 -27.5t249 -82.5t173.5 -66q100 105 202 105q53 0 81 -24.5t28 -67.5q0 -67 -47 -115.5t-154 -48.5q-63 0 -145 16q-49 -74 -95 -167t-102.5 -226.5t-66.5 -155.5h182 l-19 -61h-192q-59 -122 -93 -189.5t-87 -160.5t-101 -158q63 -18 169.5 -59t192.5 -65t167 -24q65 0 114 17.5t92.5 60.5t80 99.5t83.5 150.5l11 21l41 -31l-11 -21q-49 -97 -75 -145t-73.5 -118t-89 -103t-103.5 -58.5t-134 -25.5q-90 0 -181.5 25t-228 82t-165.5 67 q-123 -123 -262 -123q-50 0 -80.5 27t-30.5 75zM-16 98q0 -20 20 -33.5t54 -13.5q96 0 192 90q-72 23 -147 23q-119 0 -119 -66zM555 1997l31 41l235 -123l236 123l30 -41l-266 -195zM1090 1487q52 -12 96 -12q51 0 77 14.5t26 34.5q0 14 -15 23t-41 9q-71 0 -143 -69z" />
<glyph unicode="&#x17e;" horiz-adv-x="717" d="M-10 430l30 62q21 42 31 61.5t34.5 61.5t41.5 63.5t45 53t54 47.5t60.5 28t71.5 12q99 0 157 -57t58 -146q0 -99 -88.5 -207t-201.5 -178q96 -57 157 -161q182 192 267 360l10 21l41 -31l-10 -21q-19 -37 -43.5 -76.5t-43.5 -67t-52 -68t-47.5 -57.5t-52 -59.5 t-44.5 -50.5q37 -92 37 -194q0 -175 -58 -256.5t-157 -81.5q-58 0 -95.5 36.5t-37.5 96.5q0 72 47 154t141 202q-24 89 -64 143.5t-75 69.5q-43 -16 -66 -16q-32 0 -49.5 14.5t-17.5 34.5q0 22 19 37.5t52 15.5q25 0 72 -14q96 50 161.5 148t65.5 194q0 64 -32 104t-91 40 q-23 0 -46.5 -10.5t-41 -23t-40 -40t-35 -45t-34 -56.5t-29.5 -54.5t-30 -57.5l-30 -62zM92 1137l31 41l235 -123l236 123l30 -41l-266 -195zM211 -373q0 -32 18 -55t47 -23q19 0 33 7t28.5 28.5t22 69.5t7.5 121q0 63 -11 135q-145 -185 -145 -283z" />
<glyph unicode="&#x2c6;" horiz-adv-x="532" d="M0 983l266 195l266 -195l-30 -41l-236 123l-235 -123z" />
<glyph unicode="&#x2c7;" horiz-adv-x="532" d="M0 1137l31 41l235 -123l236 123l30 -41l-266 -195z" />
<glyph unicode="&#x2d8;" horiz-adv-x="389" d="M0 1147l41 10q10 -31 51 -61.5t103 -30.5q61 0 102 30.5t51 61.5l41 -10q-17 -70 -70 -127t-124 -57t-124.5 57t-70.5 127z" />
<glyph unicode="&#x2d9;" horiz-adv-x="164" d="M0 1065q0 34 24 58t58 24q35 0 58.5 -24t23.5 -58q0 -35 -23.5 -58.5t-58.5 -23.5q-34 0 -58 23.5t-24 58.5z" />
<glyph unicode="&#x2da;" horiz-adv-x="328" d="M0 1083q0 68 48.5 117t115.5 49t115.5 -49t48.5 -117q0 -66 -48.5 -113.5t-115.5 -47.5t-115.5 47.5t-48.5 113.5zM61 1085q0 -41 31 -71.5t72 -30.5t71.5 30.5t30.5 71.5q0 42 -30.5 72.5t-71.5 30.5t-72 -30.5t-31 -72.5z" />
<glyph unicode="&#x2db;" horiz-adv-x="289" d="M0 -225q0 77 55 187.5t121 184.5l41 19q-47 -67 -75.5 -152.5t-28.5 -154.5q0 -53 17.5 -84t53.5 -31q34 0 78 27l27 -45q-30 -27 -79.5 -44.5t-96.5 -17.5q-51 0 -82 26.5t-31 84.5z" />
<glyph unicode="&#x2dc;" horiz-adv-x="512" d="M0 983q0 7 1.5 18t10.5 39t23 50t42.5 39.5t65.5 17.5q41 0 128 -31t128 -31q28 0 46 15.5t22 31.5l4 15h41q0 -7 -1.5 -18t-10.5 -39t-23 -50t-42.5 -39.5t-65.5 -17.5q-41 0 -128.5 30.5t-127.5 30.5q-17 0 -31 -6.5t-21.5 -15t-12 -17.5t-6.5 -15l-1 -7h-41z" />
<glyph unicode="&#x2dd;" horiz-adv-x="461" d="M0 934l92 254l133 -60l-188 -217zM236 934l92 254l133 -60l-189 -217z" />
<glyph unicode="&#x2000;" horiz-adv-x="1054" />
<glyph unicode="&#x2001;" horiz-adv-x="2109" />
<glyph unicode="&#x2002;" horiz-adv-x="1054" />
<glyph unicode="&#x2003;" horiz-adv-x="2109" />
<glyph unicode="&#x2004;" horiz-adv-x="703" />
<glyph unicode="&#x2005;" horiz-adv-x="527" />
<glyph unicode="&#x2006;" horiz-adv-x="351" />
<glyph unicode="&#x2007;" horiz-adv-x="351" />
<glyph unicode="&#x2008;" horiz-adv-x="263" />
<glyph unicode="&#x2009;" horiz-adv-x="421" />
<glyph unicode="&#x200a;" horiz-adv-x="117" />
<glyph unicode="&#x2010;" horiz-adv-x="737" d="M123 532v82h491v-82h-491z" />
<glyph unicode="&#x2011;" horiz-adv-x="737" d="M123 532v82h491v-82h-491z" />
<glyph unicode="&#x2012;" horiz-adv-x="737" d="M123 532v82h491v-82h-491z" />
<glyph unicode="&#x2013;" horiz-adv-x="799" d="M123 532v82h553v-82h-553z" />
<glyph unicode="&#x2014;" horiz-adv-x="1167" d="M123 532v82h921v-82h-921z" />
<glyph unicode="&#x2018;" horiz-adv-x="358" d="M72 1178q0 40 16 79.5t39 67.5t46.5 50t39.5 33l16 11l29 -26q-74 -74 -74 -123q0 -13 14.5 -25t31.5 -21t31.5 -29t14.5 -48q0 -38 -26.5 -65t-65.5 -27q-47 0 -79.5 35t-32.5 88z" />
<glyph unicode="&#x2019;" horiz-adv-x="0" d="M-20 1313q0 38 29.5 66t66.5 28q45 0 74.5 -36t29.5 -89q0 -38 -15 -77t-36 -67.5t-42.5 -51.5t-36.5 -34l-15 -12l-29 27q22 14 46 52.5t24 70.5q0 10 -15 20.5t-33 20t-33 31t-15 51.5z" />
<glyph unicode="&#x201a;" horiz-adv-x="358" d="M82 123q0 38 27 65t65 27q46 0 74 -35t28 -88q0 -38 -15 -77t-36 -67.5t-42.5 -51.5t-36.5 -34l-15 -12l-29 27q22 15 46 53t24 70q0 10 -14 20.5t-31 20t-31 31t-14 51.5z" />
<glyph unicode="&#x201c;" horiz-adv-x="604" d="M82 1155q0 24 6.5 48t17 43.5t24.5 38t29.5 33t31 27t30 22t25 16t17.5 10.5l7 4l23 -31q-23 -10 -56.5 -46.5t-33.5 -66.5q0 -8 12 -19.5t26 -22t26 -30t12 -42.5q0 -42 -29.5 -69.5t-69.5 -27.5q-43 0 -70.5 33t-27.5 80zM270 1397zM322 1165q0 28 8 56.5t21 52t28 45 t30.5 37t28.5 27.5t21 18l8 6l29 -27q-10 -6 -21.5 -19.5t-22.5 -30t-18.5 -36.5t-7.5 -37q0 -10 15 -20.5t33 -19.5t33 -30.5t15 -51.5q0 -38 -29.5 -66.5t-66.5 -28.5q-22 0 -41.5 10t-33 26.5t-21.5 39.5t-8 49z" />
<glyph unicode="&#x201d;" horiz-adv-x="604" d="M82 1313q0 38 29.5 66t66.5 28q46 0 75.5 -36t29.5 -89q0 -38 -15 -77t-36.5 -67.5t-43 -51.5t-36.5 -34l-15 -12l-28 27q21 14 45 52.5t24 70.5q0 10 -15 20.5t-33 20t-33 31t-15 51.5zM311 1081q23 11 55.5 47t32.5 66q0 9 -11.5 20t-25 22t-25 30.5t-11.5 42.5 q0 42 27.5 68t66.5 26q44 0 73 -32t29 -79q0 -31 -10 -60.5t-27 -53t-36.5 -44t-39.5 -35.5t-36.5 -25.5t-27.5 -16.5l-11 -6zM334 1051z" />
<glyph unicode="&#x201e;" horiz-adv-x="604" d="M82 123q0 38 29.5 66t66.5 28q46 0 75.5 -36t29.5 -89q0 -38 -15 -77t-36.5 -67.5t-43 -51.5t-36.5 -34l-15 -12l-28 27q22 15 45.5 53t23.5 70q0 10 -15 20.5t-33 20t-33 31t-15 51.5zM311 -109q24 11 57 47t33 66q0 9 -11.5 20t-26 22t-26 30.5t-11.5 42.5q0 28 14 50 t36 34t48 12q43 0 70.5 -32.5t27.5 -80.5q0 -31 -10 -60.5t-27 -53t-36.5 -44t-39.5 -35.5t-36.5 -25.5t-27.5 -16.5l-11 -6zM334 -139z" />
<glyph unicode="&#x2022;" horiz-adv-x="573" d="M123 481q0 68 48.5 117t115.5 49t115.5 -49t48.5 -117q0 -66 -48.5 -114t-115.5 -48t-115.5 48t-48.5 114z" />
<glyph unicode="&#x2026;" horiz-adv-x="1167" d="M123 92q0 38 27 65t65 27t65 -27t27 -65t-27 -65t-65 -27t-65 27t-27 65zM492 92q0 38 26.5 65t65.5 27q38 0 65 -27t27 -65t-27 -65t-65 -27q-39 0 -65.5 27t-26.5 65zM860 92q0 38 27 65t65 27q39 0 65.5 -27t26.5 -65t-26.5 -65t-65.5 -27q-38 0 -65 27t-27 65z" />
<glyph unicode="&#x202f;" horiz-adv-x="421" />
<glyph unicode="&#x2030;" horiz-adv-x="1841" d="M123 1055q0 138 69 227.5t177 89.5q117 0 190 -108q91 -56 219 -56q139 0 234 64l35 51l75 -53l-868 -1241l-76 53l774 1106q-77 -31 -174 -31q-106 0 -184 33q20 -68 20 -135q0 -139 -69 -228.5t-176 -89.5q-108 0 -177 89.5t-69 228.5zM246 1055q0 -63 5 -107.5 t17.5 -83t38 -57.5t62.5 -19t62 19.5t38 57.5t18 82.5t5 107.5q0 62 -5 107t-18 83t-38 57t-62 19t-62.5 -19t-38 -57.5t-17.5 -83t-5 -106.5zM676 317q0 139 69 228.5t177 89.5q107 0 176 -89.5t69 -228.5q0 -138 -69 -227.5t-176 -89.5q-108 0 -177 89.5t-69 227.5z M799 317q0 -62 5 -106.5t17.5 -83t38 -57.5t62.5 -19q49 0 77 36.5t36.5 90.5t8.5 139t-8.5 139.5t-36.5 91t-77 36.5q-37 0 -62.5 -19t-38 -57.5t-17.5 -83t-5 -107.5zM1227 317q0 139 69 228.5t177 89.5q107 0 176 -89.5t69 -228.5q0 -138 -69 -227.5t-176 -89.5 q-108 0 -177 89.5t-69 227.5zM1350 317q0 -62 5 -106.5t17.5 -83t38 -57.5t62.5 -19q49 0 77 36.5t36.5 90.5t8.5 139t-8.5 139.5t-36.5 91t-77 36.5q-37 0 -62.5 -19t-38 -57.5t-17.5 -83t-5 -107.5z" />
<glyph unicode="&#x2039;" horiz-adv-x="799" d="M123 461l514 461l41 -52l-389 -409l389 -410l-41 -51z" />
<glyph unicode="&#x203a;" horiz-adv-x="799" d="M123 51l389 410l-389 409l41 52l514 -461l-514 -461z" />
<glyph unicode="&#x2044;" horiz-adv-x="717" d="M123 727v51h471v-51h-471z" />
<glyph unicode="&#x205f;" horiz-adv-x="527" />
<glyph unicode="&#x20ac;" horiz-adv-x="1178" d="M119 743l12 62h125v86h-113l11 61h106q22 241 142.5 392t297.5 151q107 0 192.5 -57.5t139.5 -161.5l-45 -33q-39 87 -108.5 144t-151.5 57q-72 0 -129 -38.5t-93 -108t-57 -155.5t-28 -190h481l-10 -61h-473v-86h459l-11 -62h-444q9 -137 42.5 -241.5t99.5 -171 t157 -66.5q97 0 170 62.5t117 171.5l49 -17q-54 -128 -145 -199t-212 -71q-176 0 -295.5 147t-144.5 385h-141z" />
<glyph unicode="&#x2122;" horiz-adv-x="1372" d="M123 1358q0 96 188 96h275v-467q0 -168 -150 -168q-63 0 -108 42.5t-45 121.5h39q0 -50 27 -79.5t63 -29.5q32 0 46.5 19t14.5 63q0 357 -2 396h-125q-145 0 -145 -56q0 -22 23 -43.5t46 -32.5l23 -10l-12 -36q-6 2 -17 7t-38 22.5t-48 37t-38 51.5t-17 66zM670 834v620 h102l135 -426l109 426h108q-24 -266 -24 -412q0 -145 51 -145q22 0 43.5 23t31.5 46l11 23l37 -12q-3 -6 -7.5 -17t-22 -38t-37 -48t-51.5 -38t-66 -17q-97 0 -97 189q0 59 11 180l-95 -354h-73l-115 354v-354h-51z" />
<glyph unicode="&#x2212;" horiz-adv-x="850" d="M123 532v82h604v-82h-604z" />
<glyph unicode="&#xe000;" horiz-adv-x="820" d="M0 0v820h820v-820h-820z" />
<glyph unicode="&#xfb01;" horiz-adv-x="881" d="M-2 707q0 368 74.5 578t181.5 210q92 0 92 -123q0 -268 -205 -790v-236q15 -11 49 -19t70 -8q61 0 111.5 26.5t74.5 60.5q0 339 21 372q13 23 39 32t47 9q68 0 68 -123q0 -164 -43 -284v-113q0 -60 5.5 -99t16 -55.5t20 -22t23.5 -5.5q35 0 86.5 68.5t140.5 244.5l11 21 l41 -31l-11 -21q-33 -65 -51 -100t-49 -90t-52.5 -85t-49.5 -63t-54 -47t-51 -14q-55 0 -88.5 25t-52.5 96.5t-19 197.5q-109 -73 -225 -73q-47 0 -78 10v-758l-102 -10q-41 568 -41 1219zM141 711q123 354 123 610q0 102 -43 102q-80 0 -80 -563v-149zM459 1024q0 34 24 58 t58 24q35 0 58.5 -24t23.5 -58q0 -35 -23.5 -58.5t-58.5 -23.5q-34 0 -58 23.5t-24 58.5z" />
<glyph unicode="&#xfb02;" horiz-adv-x="864" d="M-2 707q0 368 74.5 578t181.5 210q92 0 92 -123q0 -268 -205 -790v-224q16 -22 46.5 -34.5t58.5 -12.5q113 0 176 129q-2 47 -2 154q0 450 71 675.5t179 225.5q71 0 71 -113q0 -136 -54.5 -378.5t-125.5 -471.5q12 -239 31 -322t57 -83q61 0 211 303l10 21l41 -31 l-10 -21q-112 -224 -176.5 -311.5t-130.5 -87.5q-73 0 -114 80t-54 268q-37 -52 -88.5 -81t-108.5 -29q-45 0 -88 18v-758l-102 -10q-41 568 -41 1219zM141 711q123 354 123 610q0 102 -43 102q-80 0 -80 -563v-149zM561 698q50 182 82.5 365t32.5 295q0 45 -21 45 q-32 0 -61.5 -232t-32.5 -473z" />
</font>
</defs>
</svg>
